<?xml version="1.0" standalone="no"?>
<!DOCTYPE svg PUBLIC "-//W3C//DTD SVG 1.1//EN" "http://www.w3.org/Graphics/SVG/1.1/DTD/svg11.dtd" >
<svg xmlns="http://www.w3.org/2000/svg">
<metadata>Generated by IcoMoon</metadata>
<defs>
<font id="icomoon" horiz-adv-x="1024">
<font-face units-per-em="1024" ascent="960" descent="-64" />
<missing-glyph horiz-adv-x="1024" />
<glyph unicode="&#x20;" horiz-adv-x="512" d="" />
<glyph unicode="&#xe900;" glyph-name="k-fill" d="M128 832h768c23.565 0 42.667-19.103 42.667-42.667v-682.667c0-23.565-19.102-42.667-42.667-42.667h-768c-23.564 0-42.667 19.102-42.667 42.667v682.667c0 23.564 19.103 42.667 42.667 42.667zM490.667 384v64h-42.667v128h-64v-128h-64v128h-64v-192h128v-64h64v64h42.667zM768 320l-96 128 96 128h-74.667l-74.667-96v96h-64v-256h64v96l74.667-96h74.667z" />
<glyph unicode="&#xe901;" glyph-name="k-line" d="M170.667 746.667v-597.333h682.667v597.333h-682.667zM128 832h768c23.565 0 42.667-19.103 42.667-42.667v-682.667c0-23.565-19.102-42.667-42.667-42.667h-768c-23.564 0-42.667 19.102-42.667 42.667v682.667c0 23.564 19.103 42.667 42.667 42.667zM490.667 384h-42.667v-64h-64v64h-128v192h64v-128h64v128h64v-128h42.667v-64zM768 320h-74.667l-74.667 96v-96h-64v256h64v-96l74.667 96h74.667l-96-128 96-128z" />
<glyph unicode="&#xe902;" glyph-name="hours-fill" d="M512.209 405.214c70.69 0 128-57.31 128-128 0-36.228-15.053-68.945-39.245-92.233l-81.498-78.417 120.742-0.017v-85.333h-256.001l-0.038 73.574 157.624 151.68c8.068 7.778 13.082 18.675 13.082 30.746 0 23.565-19.102 42.667-42.667 42.667s-42.667-19.102-42.667-42.667h-85.334c0 70.69 57.306 128 128.001 128zM768.209 405.214v-170.667h85.333v170.667h85.333v-384h-85.333v128h-170.667v256h85.333zM170.875 447.881c0-107.802 49.973-203.93 128.017-266.483l-0.016-103.104c-127.532 73.775-213.334 211.661-213.334 369.587h85.333zM512.209 874.547c221.239 0 403.149-168.389 424.559-383.995l-85.867-0.009c-20.996 168.379-164.629 298.671-338.692 298.671-105.126 0-199.151-47.523-261.764-122.258l91.097-91.075h-256v256l104.387-104.383c78.228 90.086 193.602 147.050 322.281 147.050z" />
<glyph unicode="&#xe903;" glyph-name="hours-line" d="M512.209 405.214c70.69 0 128-57.31 128-128 0-36.228-15.053-68.945-39.245-92.233l-81.498-78.417 120.742-0.017v-85.333h-256.001l-0.038 73.574 157.624 151.68c8.068 7.778 13.082 18.675 13.082 30.746 0 23.565-19.102 42.667-42.667 42.667s-42.667-19.102-42.667-42.667h-85.334c0 70.69 57.306 128 128.001 128zM768.209 405.214v-170.667h85.333v170.667h85.333v-384h-85.333v128h-170.667v256h85.333zM170.875 447.881c0-107.802 49.973-203.93 128.017-266.483l-0.016-103.104c-127.532 73.775-213.334 211.661-213.334 369.587h85.333zM512.209 874.547c221.239 0 403.149-168.389 424.559-383.995l-85.867-0.009c-20.996 168.379-164.629 298.671-338.692 298.671-117.325 0-220.823-59.193-282.261-149.344l111.594 0.010v-85.333h-256v256h85.333l-0.005-106.631c77.843 103.613 201.764 170.631 341.339 170.631z" />
<glyph unicode="&#xe904;" glyph-name="a-b" d="M213.333 320v-85.333c0-44.988 40.533-85.333 85.333-85.333h128v-85.333h-128c-94.257 0-170.667 76.412-170.667 170.667v85.333h85.333zM768 533.333l187.733-469.333h-91.947l-51.243 128h-174.507l-51.157-128h-91.904l187.691 469.333h85.333zM725.333 410.231l-53.205-132.898h106.325l-53.12 132.898zM128 832h256c70.694 0 128-57.308 128-128 0-32.801-12.339-62.721-32.627-85.371 20.305-22.612 32.627-52.515 32.627-85.296 0-70.694-57.306-128-128-128h-256v426.667zM384 576h-170.667v-85.333h170.667c23.564 0 42.667 19.102 42.667 42.667 0 23.467-19.2 42.667-42.667 42.667zM725.333 832c94.255 0 170.667-76.41 170.667-170.667v-85.333h-85.333v85.333c0 47.128-38.204 85.333-85.333 85.333h-128v85.333h128zM384 746.667h-170.667v-85.333h170.667c23.564 0 42.667 19.103 42.667 42.667 0 23.467-19.2 42.667-42.667 42.667z" />
<glyph unicode="&#xe905;" glyph-name="account-box-fill" d="M128 746.876c0 47.013 38.085 85.124 85.124 85.124h597.752c47.014 0 85.124-38.085 85.124-85.124v-597.752c0-47.014-38.084-85.124-85.124-85.124h-597.752c-47.013 0-85.124 38.084-85.124 85.124v597.752zM271.226 192h490.267c-53.973 77.376-143.642 128-245.133 128-101.494 0-191.163-50.624-245.134-128zM512 405.333c82.475 0 149.333 66.859 149.333 149.333s-66.859 149.333-149.333 149.333c-82.475 0-149.333-66.859-149.333-149.333s66.859-149.333 149.333-149.333z" />
<glyph unicode="&#xe906;" glyph-name="account-box-line" d="M128 746.876c0 47.013 38.085 85.124 85.124 85.124h597.752c47.014 0 85.124-38.085 85.124-85.124v-597.752c0-47.014-38.084-85.124-85.124-85.124h-597.752c-47.013 0-85.124 38.084-85.124 85.124v597.752zM213.333 746.667v-597.333h597.333v597.333h-597.333zM340.145 184.286c-26.397 11.43-51.412 25.451-74.723 41.745 53.201 82.223 145.715 136.636 250.938 136.636 102.37 0 192.713-51.503 246.524-130.014-22.882-16.913-47.518-31.595-73.583-43.716-38.754 53.555-101.781 88.397-172.941 88.397-73.203 0-137.792-36.868-176.215-93.047zM512 405.333c-82.475 0-149.333 66.859-149.333 149.333s66.859 149.333 149.333 149.333c82.475 0 149.333-66.859 149.333-149.333s-66.859-149.333-149.333-149.333zM512 490.667c35.345 0 64 28.655 64 64 0 35.346-28.655 64-64 64s-64-28.654-64-64c0-35.345 28.655-64 64-64z" />
<glyph unicode="&#xe907;" glyph-name="account-circle-fill" d="M512 874.667c235.52 0 426.667-191.147 426.667-426.667s-191.147-426.667-426.667-426.667c-235.52 0-426.667 191.147-426.667 426.667s191.147 426.667 426.667 426.667zM256.995 302.238c62.614-93.466 156.663-152.905 261.819-152.905s199.206 59.439 261.82 152.905c-68.591 63.962-160.636 103.095-261.82 103.095s-193.227-39.134-261.819-103.095zM512 490.667c70.694 0 128 57.308 128 128s-57.306 128-128 128c-70.694 0-128-57.308-128-128s57.306-128 128-128z" />
<glyph unicode="&#xe908;" glyph-name="account-circle-line" d="M512 874.667c235.639 0 426.667-191.025 426.667-426.667 0-235.639-191.027-426.667-426.667-426.667-235.642 0-426.667 191.027-426.667 426.667 0 235.642 191.025 426.667 426.667 426.667zM518.814 277.333c-86.844 0-165.030-37.065-219.603-96.239 58.352-46.583 132.32-74.428 212.789-74.428 84.032 0 160.969 30.366 220.442 80.721-54.229 55.497-129.907 89.946-213.628 89.946zM512 789.333c-188.513 0-341.333-152.82-341.333-341.333 0-77.252 25.664-148.51 68.931-205.713 70.008 74.125 169.21 120.38 279.216 120.38 106.001 0 201.967-42.948 271.45-112.393 39.714 55.787 63.070 124.028 63.070 197.726 0 188.513-152.819 341.333-341.333 341.333zM512 746.667c94.255 0 170.667-76.41 170.667-170.667 0-94.255-76.412-170.667-170.667-170.667-94.257 0-170.667 76.412-170.667 170.667 0 94.257 76.41 170.667 170.667 170.667zM512 661.333c-47.13 0-85.333-38.205-85.333-85.333 0-47.13 38.204-85.333 85.333-85.333s85.333 38.204 85.333 85.333c0 47.128-38.204 85.333-85.333 85.333z" />
<glyph unicode="&#xe909;" glyph-name="account-pin-box-fill" d="M597.333 64l-85.333-85.333-85.333 85.333h-213.543c-47.013 0-85.124 38.084-85.124 85.124v597.752c0 47.013 38.085 85.124 85.124 85.124h597.752c47.014 0 85.124-38.085 85.124-85.124v-597.752c0-47.014-38.084-85.124-85.124-85.124h-213.542zM271.226 192h490.267c-53.973 77.376-143.642 128-245.133 128-101.494 0-191.163-50.624-245.134-128zM512 405.333c82.475 0 149.333 66.859 149.333 149.333s-66.859 149.333-149.333 149.333c-82.475 0-149.333-66.859-149.333-149.333s66.859-149.333 149.333-149.333z" />
<glyph unicode="&#xe90a;" glyph-name="account-pin-box-line" d="M597.333 64l-85.333-85.333-85.333 85.333h-213.543c-47.013 0-85.124 38.084-85.124 85.124v597.752c0 47.013 38.085 85.124 85.124 85.124h597.752c47.014 0 85.124-38.085 85.124-85.124v-597.752c0-47.014-38.084-85.124-85.124-85.124h-213.542zM810.667 149.333v597.333h-597.333v-597.333h248.678l49.988-49.988 49.988 49.988h248.678zM340.145 184.286c-26.397 11.43-51.412 25.451-74.723 41.745 53.201 82.223 145.715 136.636 250.938 136.636 102.37 0 192.713-51.503 246.524-130.014-22.882-16.913-47.518-31.595-73.583-43.716-38.754 53.555-101.781 88.397-172.941 88.397-73.203 0-137.792-36.868-176.215-93.047zM512 405.333c-82.475 0-149.333 66.859-149.333 149.333s66.859 149.333 149.333 149.333c82.475 0 149.333-66.859 149.333-149.333s-66.859-149.333-149.333-149.333zM512 490.667c35.345 0 64 28.655 64 64 0 35.346-28.655 64-64 64s-64-28.654-64-64c0-35.345 28.655-64 64-64z" />
<glyph unicode="&#xe90b;" glyph-name="account-pin-circle-fill" d="M608.247 32.247l-96.247-96.247-96.249 96.247c-189.216 43.682-330.417 213.329-330.417 415.753 0 235.52 191.147 426.667 426.667 426.667s426.667-191.147 426.667-426.667c0-202.423-141.201-372.070-330.419-415.753zM256.995 302.238c62.614-93.466 156.663-152.905 261.819-152.905s199.206 59.439 261.82 152.905c-68.591 63.962-160.636 103.095-261.82 103.095s-193.227-39.134-261.819-103.095zM512 490.667c70.694 0 128 57.308 128 128s-57.306 128-128 128c-70.694 0-128-57.308-128-128s57.306-128 128-128z" />
<glyph unicode="&#xe90c;" glyph-name="account-pin-circle-line" d="M415.77 32.23c-189.297 43.635-330.437 213.218-330.437 415.77 0 235.642 191.025 426.667 426.667 426.667 235.639 0 426.667-191.025 426.667-426.667 0-202.551-141.141-372.134-330.436-415.77l-96.23-96.23-96.23 96.23zM299.167 181.047c38.944-31.117 85.018-53.965 135.773-65.664l23.859-5.5 53.201-53.205 53.201 53.205 23.859 5.5c54.118 12.476 102.921 37.623 143.424 71.962-54.234 55.522-129.924 89.988-213.67 89.988-86.865 0-165.072-37.086-219.647-96.286zM239.6 242.287c70.008 74.125 169.209 120.38 279.214 120.38 105.997 0 201.958-42.944 271.441-112.384 39.881 56.128 63.078 124.582 63.078 197.717 0 188.513-152.819 341.333-341.333 341.333s-341.333-152.82-341.333-341.333c0-76.646 25.475-148.147 68.933-205.713zM512 405.333c-94.257 0-170.667 76.412-170.667 170.667 0 94.257 76.41 170.667 170.667 170.667 94.255 0 170.667-76.41 170.667-170.667 0-94.255-76.412-170.667-170.667-170.667zM512 490.667c47.13 0 85.333 38.204 85.333 85.333 0 47.128-38.204 85.333-85.333 85.333s-85.333-38.205-85.333-85.333c0-47.13 38.204-85.333 85.333-85.333z" />
<glyph unicode="&#xe90d;" glyph-name="add-box-fill" d="M170.667 832h682.667c23.565 0 42.667-19.103 42.667-42.667v-682.667c0-23.565-19.102-42.667-42.667-42.667h-682.667c-23.564 0-42.667 19.102-42.667 42.667v682.667c0 23.564 19.103 42.667 42.667 42.667zM469.333 490.667h-170.667v-85.333h170.667v-170.667h85.333v170.667h170.667v85.333h-170.667v170.667h-85.333v-170.667z" />
<glyph unicode="&#xe90e;" glyph-name="add-box-line" d="M170.667 832h682.667c23.565 0 42.667-19.103 42.667-42.667v-682.667c0-23.565-19.102-42.667-42.667-42.667h-682.667c-23.564 0-42.667 19.102-42.667 42.667v682.667c0 23.564 19.103 42.667 42.667 42.667zM213.333 746.667v-597.333h597.333v597.333h-597.333zM469.333 490.667v170.667h85.333v-170.667h170.667v-85.333h-170.667v-170.667h-85.333v170.667h-170.667v85.333h170.667z" />
<glyph unicode="&#xe90f;" glyph-name="add-circle-fill" d="M512 21.333c-235.642 0-426.667 191.027-426.667 426.667 0 235.642 191.025 426.667 426.667 426.667 235.639 0 426.667-191.025 426.667-426.667 0-235.639-191.027-426.667-426.667-426.667zM469.333 490.667h-170.667v-85.333h170.667v-170.667h85.333v170.667h170.667v85.333h-170.667v170.667h-85.333v-170.667z" />
<glyph unicode="&#xe910;" glyph-name="add-circle-line" d="M469.333 490.667v170.667h85.333v-170.667h170.667v-85.333h-170.667v-170.667h-85.333v170.667h-170.667v85.333h170.667zM512 21.333c-235.642 0-426.667 191.027-426.667 426.667 0 235.642 191.025 426.667 426.667 426.667 235.639 0 426.667-191.025 426.667-426.667 0-235.639-191.027-426.667-426.667-426.667zM512 106.667c188.514 0 341.333 152.819 341.333 341.333s-152.819 341.333-341.333 341.333c-188.513 0-341.333-152.82-341.333-341.333s152.82-341.333 341.333-341.333z" />
<glyph unicode="&#xe911;" glyph-name="add-fill" d="M469.333 490.667v256h85.333v-256h256v-85.333h-256v-256h-85.333v256h-256v85.333h256z" />
<glyph unicode="&#xe912;" glyph-name="add-large-fill" d="M469.333 490.662v383.983h85.333v-383.983l384.004 0.009 0.004-85.333-384.009-0.009 0.004-383.996h-85.333v383.996l-384.003-0.009-0.002 85.333 384 0.009z" />
<glyph unicode="&#xe913;" glyph-name="add-large-line" d="M554.671 490.671l384.004 0.009v-85.333l-384.004-0.009v-383.996h-85.333v383.996l-384.003-0.009-0.002 85.333 384.004 0.009-0.004 383.985h85.333l0.004-383.985z" />
<glyph unicode="&#xe914;" glyph-name="add-line" d="M469.333 490.667v256h85.333v-256h256v-85.333h-256v-256h-85.333v256h-256v85.333h256z" />
<glyph unicode="&#xe915;" glyph-name="admin-fill" d="M512 362.667v-341.333h-341.333c0 188.514 152.82 341.333 341.333 341.333zM512 405.333c-141.44 0-256 114.56-256 256s114.56 256 256 256c141.44 0 256-114.56 256-256s-114.56-256-256-256zM896 234.667h42.667v-213.333h-341.333v213.333h42.667v42.667c0 70.694 57.306 128 128 128s128-57.306 128-128v-42.667zM810.667 234.667v42.667c0 23.565-19.102 42.667-42.667 42.667s-42.667-19.102-42.667-42.667v-42.667h85.333z" />
<glyph unicode="&#xe916;" glyph-name="admin-line" d="M512 362.667v-85.333c-141.385 0-256-114.615-256-256h-85.333c0 188.514 152.82 341.333 341.333 341.333zM512 405.333c-141.44 0-256 114.56-256 256s114.56 256 256 256c141.44 0 256-114.56 256-256s-114.56-256-256-256zM512 490.667c94.293 0 170.667 76.373 170.667 170.667s-76.373 170.667-170.667 170.667c-94.293 0-170.667-76.373-170.667-170.667s76.373-170.667 170.667-170.667zM896 234.667h42.667v-213.333h-341.333v213.333h42.667v42.667c0 70.694 57.306 128 128 128s128-57.306 128-128v-42.667zM810.667 234.667v42.667c0 23.565-19.102 42.667-42.667 42.667s-42.667-19.102-42.667-42.667v-42.667h85.333z" />
<glyph unicode="&#xe917;" glyph-name="advertisement-fill" d="M322.217 405.333l36.139 90.231 36.054-90.231h-72.192zM682.667 448h42.667v-85.333h-42.667c-23.565 0-42.667 19.102-42.667 42.667s19.102 42.667 42.667 42.667zM896 832h-768c-23.564 0-42.667-19.103-42.667-42.667v-682.667c0-23.565 19.103-42.667 42.667-42.667h768c23.565 0 42.667 19.102 42.667 42.667v682.667c0 23.564-19.102 42.667-42.667 42.667zM537.515 277.333h-91.947l-17.067 42.667h-140.375l-17.067-42.667h-91.904l136.533 341.333h85.333l136.492-341.333zM725.333 618.667h85.333v-341.333h-128c-70.694 0-128 57.306-128 128s57.306 128 128 128h42.667v85.333z" />
<glyph unicode="&#xe918;" glyph-name="advertisement-line" d="M537.515 277.333l-136.494 341.333h-85.333l-136.532-341.333h91.907l17.062 42.667h140.376l17.067-42.667h91.947zM322.219 405.333l36.136 90.236 36.057-90.236h-72.193zM725.333 618.667h85.333v-341.333h-128c-70.694 0-128 57.306-128 128s57.306 128 128 128h42.667v85.333zM682.667 448c-23.561 0-42.667-19.106-42.667-42.667s19.106-42.667 42.667-42.667h42.667v85.333h-42.667zM896 832h-768c-23.563 0-42.667-19.104-42.667-42.667v-682.667c0-23.561 19.104-42.667 42.667-42.667h768c23.561 0 42.667 19.106 42.667 42.667v682.667c0 23.563-19.106 42.667-42.667 42.667zM170.667 149.333v597.333h682.667v-597.333h-682.667z" />
<glyph unicode="&#xe919;" glyph-name="aed-electrodes-fill" d="M341.333 832c-23.564 0-42.667-19.103-42.667-42.667v-128h-128c-23.564 0-42.667-19.103-42.667-42.667v-512c0-23.565 19.103-42.667 42.667-42.667h213.333v-85.333h85.333v85.333h213.333c23.565 0 42.667 19.102 42.667 42.667v128h128c23.565 0 42.667 19.102 42.667 42.667v512c0 23.564-19.102 42.667-42.667 42.667h-512zM725.333 320v298.667c0 23.564-19.102 42.667-42.667 42.667h-298.667v85.333h426.667v-426.667h-85.333z" />
<glyph unicode="&#xe91a;" glyph-name="aed-electrodes-line" d="M298.667 789.333c0 23.564 19.103 42.667 42.667 42.667h512c23.565 0 42.667-19.103 42.667-42.667v-512c0-23.565-19.102-42.667-42.667-42.667h-128v-128c0-23.565-19.102-42.667-42.667-42.667h-213.333v-85.333h-85.333v85.333h-213.333c-23.564 0-42.667 19.102-42.667 42.667v512c0 23.564 19.103 42.667 42.667 42.667h128v128zM810.667 320v426.667h-426.667v-85.333h298.667c23.565 0 42.667-19.103 42.667-42.667v-298.667h85.333zM213.333 576v-426.667h426.667v426.667h-426.667z" />
<glyph unicode="&#xe91b;" glyph-name="aed-fill" d="M256 832c-70.692 0-128-57.308-128-128v-512c0-70.694 57.308-128 128-128h512c70.694 0 128 57.306 128 128v512c0 70.692-57.306 128-128 128h-512zM682.667 490.667l-213.333-298.667v213.333h-128l213.333 298.667v-213.333h128z" />
<glyph unicode="&#xe91c;" glyph-name="aed-line" d="M256 746.667c-23.564 0-42.667-19.103-42.667-42.667v-512c0-23.565 19.103-42.667 42.667-42.667h512c23.565 0 42.667 19.102 42.667 42.667v512c0 23.564-19.102 42.667-42.667 42.667h-512zM128 704c0 70.692 57.308 128 128 128h512c70.694 0 128-57.308 128-128v-512c0-70.694-57.306-128-128-128h-512c-70.692 0-128 57.306-128 128v512zM682.667 490.667h-128v213.333l-213.333-298.667h128v-213.333l213.333 298.667z" />
<glyph unicode="&#xe91d;" glyph-name="ai-generate" d="M640 736c76.582 0 138.667 62.083 138.667 138.667h64c0-76.584 62.084-138.667 138.667-138.667v-64c-76.582 0-138.667-62.083-138.667-138.667h-64c0 76.584-62.084 138.667-138.667 138.667v64zM170.667 661.333c0 47.128 38.205 85.333 85.333 85.333h298.667v85.333h-298.667c-94.257 0-170.667-76.41-170.667-170.667v-426.667c0-94.255 76.41-170.667 170.667-170.667h512c94.255 0 170.667 76.412 170.667 170.667v213.333h-85.333v-213.333c0-47.13-38.204-85.333-85.333-85.333h-512c-47.128 0-85.333 38.204-85.333 85.333v426.667z" />
<glyph unicode="&#xe91e;" glyph-name="airplay-fill" d="M529.067 382.579l213.333-284.446c7.070-9.425 5.158-22.797-4.267-29.867-3.691-2.769-8.183-4.267-12.8-4.267h-426.667c-11.782 0-21.333 9.553-21.333 21.333 0 4.617 1.497 9.109 4.267 12.8l213.333 284.446c7.070 9.425 20.442 11.337 29.867 4.267 1.617-1.216 3.055-2.65 4.267-4.267zM768 149.333v85.333h85.333v512h-682.667v-512h85.333v-85.333h-128.35c-23.371 0-42.317 18.97-42.317 42.705v597.258c0 23.584 19.427 42.704 42.317 42.704h768.7c23.373 0 42.317-18.971 42.317-42.704v-597.258c0-23.586-19.426-42.705-42.317-42.705h-128.35z" />
<glyph unicode="&#xe91f;" glyph-name="airplay-line" d="M529.067 382.579l213.333-284.446c7.070-9.425 5.158-22.797-4.267-29.867-3.691-2.769-8.183-4.267-12.8-4.267h-426.667c-11.782 0-21.333 9.553-21.333 21.333 0 4.617 1.497 9.109 4.267 12.8l213.333 284.446c7.070 9.425 20.442 11.337 29.867 4.267 1.617-1.216 3.055-2.65 4.267-4.267zM512 263.253l-85.333-113.92h170.667l-85.333 113.92zM768 149.333v85.333h85.333v512h-682.667v-512h85.333v-85.333h-128.35c-23.371 0-42.317 18.97-42.317 42.705v597.258c0 23.584 19.427 42.704 42.317 42.704h768.7c23.373 0 42.317-18.971 42.317-42.704v-597.258c0-23.586-19.426-42.705-42.317-42.705h-128.35z" />
<glyph unicode="&#xe920;" glyph-name="alarm-fill" d="M512.004 21.329c-212.076 0-383.999 171.921-383.999 384 0 212.076 171.923 383.999 383.999 383.999 212.079 0 384-171.923 384-383.999 0-212.079-171.921-384-384-384zM554.671 405.329v213.332h-85.333v-298.666h213.333v85.333h-128zM74.542 691.942l150.849 150.849 60.34-60.34-150.85-150.85-60.34 60.34zM798.618 842.792l150.852-150.849-60.339-60.34-150.852 150.85 60.339 60.34z" />
<glyph unicode="&#xe921;" glyph-name="alarm-line" d="M512.004 21.329c-212.076 0-383.999 171.921-383.999 384 0 212.076 171.923 383.999 383.999 383.999 212.079 0 384-171.923 384-383.999 0-212.079-171.921-384-384-384zM512.004 106.662c164.949 0 298.667 133.717 298.667 298.667s-133.717 298.666-298.667 298.666c-164.948 0-298.666-133.717-298.666-298.666s133.717-298.667 298.666-298.667zM554.671 405.329h128v-85.333h-213.333v298.666h85.333v-213.332zM74.542 691.942l150.849 150.849 60.34-60.34-150.85-150.85-60.34 60.34zM798.618 842.792l150.852-150.849-60.339-60.34-150.852 150.85 60.339 60.34z" />
<glyph unicode="&#xe922;" glyph-name="alarm-warning-fill" d="M170.667 106.667v256c0 188.513 152.82 341.333 341.333 341.333s341.333-152.82 341.333-341.333v-256h42.667v-85.333h-768v85.333h42.667zM256 362.667h85.333c0 94.255 76.41 170.667 170.666 170.667v85.333c-141.385 0-256-114.615-256-256zM469.333 874.667h85.333v-128h-85.333v128zM843.87 754.875l60.339-60.34-90.509-90.51-60.339 60.34 90.509 90.51zM119.792 694.535l60.34 60.34 90.51-90.51-60.34-60.34-90.51 90.51z" />
<glyph unicode="&#xe923;" glyph-name="alarm-warning-line" d="M170.667 106.667v256c0 188.513 152.82 341.333 341.333 341.333s341.333-152.82 341.333-341.333v-256h42.667v-85.333h-768v85.333h42.667zM256 106.667h512v256c0 141.385-114.615 256-256 256s-256-114.615-256-256v-256zM469.333 874.667h85.333v-128h-85.333v128zM843.87 754.875l60.339-60.34-90.509-90.51-60.339 60.34 90.509 90.51zM119.792 694.535l60.34 60.34 90.51-90.51-60.34-60.34-90.51 90.51zM298.667 362.667c0 117.82 95.512 213.333 213.333 213.333v-85.333c-70.69 0-128-57.306-128-128h-85.333z" />
<glyph unicode="&#xe924;" glyph-name="album-fill" d="M512 874.667c235.52 0 426.667-191.147 426.667-426.667s-191.147-426.667-426.667-426.667c-235.52 0-426.667 191.147-426.667 426.667s191.147 426.667 426.667 426.667zM512 277.333c94.434 0 170.667 76.233 170.667 170.667s-76.233 170.667-170.667 170.667c-94.435 0-170.667-76.231-170.667-170.667 0-94.434 76.231-170.667 170.667-170.667zM512 490.667c23.467 0 42.667-19.2 42.667-42.667s-19.2-42.667-42.667-42.667c-23.467 0-42.667 19.2-42.667 42.667s19.2 42.667 42.667 42.667z" />
<glyph unicode="&#xe925;" glyph-name="album-line" d="M512 106.667c188.514 0 341.333 152.819 341.333 341.333s-152.819 341.333-341.333 341.333c-188.513 0-341.333-152.82-341.333-341.333s152.82-341.333 341.333-341.333zM512 21.333c-235.642 0-426.667 191.027-426.667 426.667 0 235.642 191.025 426.667 426.667 426.667 235.639 0 426.667-191.025 426.667-426.667 0-235.639-191.027-426.667-426.667-426.667zM512 362.667c47.13 0 85.333 38.204 85.333 85.333s-38.204 85.333-85.333 85.333c-47.13 0-85.333-38.204-85.333-85.333s38.204-85.333 85.333-85.333zM512 277.333c-94.257 0-170.667 76.412-170.667 170.667 0 94.257 76.41 170.667 170.667 170.667 94.255 0 170.667-76.41 170.667-170.667 0-94.255-76.412-170.667-170.667-170.667z" />
<glyph unicode="&#xe926;" glyph-name="alert-fill" d="M548.945 831.993l406.455-704.001c11.785-20.407 4.791-46.502-15.616-58.283-6.485-3.746-13.845-5.717-21.333-5.717h-812.91c-23.564 0-42.667 19.102-42.667 42.667 0 7.492 1.972 14.848 5.716 21.333l406.455 704.001c11.78 20.407 37.875 27.399 58.283 15.617 6.485-3.745 11.874-9.131 15.616-15.617zM469.329 277.325v-85.333h85.333v85.333h-85.333zM469.329 575.993v-213.335h85.333v213.335h-85.333z" />
<glyph unicode="&#xe927;" glyph-name="alert-line" d="M548.945 831.993l406.455-704.001c11.785-20.407 4.791-46.502-15.616-58.283-6.485-3.746-13.845-5.717-21.333-5.717h-812.91c-23.564 0-42.667 19.102-42.667 42.667 0 7.492 1.972 14.848 5.716 21.333l406.455 704.001c11.78 20.407 37.875 27.399 58.283 15.617 6.485-3.745 11.874-9.131 15.616-15.617zM179.442 149.325h665.106l-332.553 576.001-332.553-576.001zM469.329 277.325h85.333v-85.333h-85.333v85.333zM469.329 575.993h85.333v-213.335h-85.333v213.335z" />
<glyph unicode="&#xe928;" glyph-name="alibaba-cloud-fill" d="M405.95 740.693h-206.289c-41.638 0-81.569-16.54-111.011-45.982s-45.982-69.374-45.982-111.011v-271.286c0-41.638 16.54-81.57 45.982-111.010 29.442-29.444 69.374-45.982 111.011-45.982h206.918l-49.924 70.647-150.871 46.157c-13.306 4.241-24.912 12.621-33.129 23.915s-12.615 24.913-12.556 38.882v225.128c-0.108 13.978 4.271 27.623 12.495 38.927s19.857 19.671 33.19 23.871l150.871 47.098 49.296 70.647zM825.122 740.693h-206.916l49.924-70.647 150.869-47.098c13.316-4.206 24.93-12.579 33.126-23.886s12.544-24.948 12.403-38.912v-225.128c0.094-13.952-4.275-27.571-12.463-38.869-8.192-11.294-19.776-19.682-33.067-23.927l-150.869-46.157-49.924-70.647h206.916c20.587-0.021 40.973 4.032 59.985 11.921 19.012 7.893 36.275 19.469 50.795 34.061s26.010 31.915 33.805 50.965c7.799 19.055 11.746 39.458 11.622 60.045v271.286c0 41.502-16.431 81.315-45.705 110.735-29.269 29.42-69.001 46.051-110.502 46.259zM668.442 484.796h-312.73v-70.49h312.73v70.49z" />
<glyph unicode="&#xe929;" glyph-name="alibaba-cloud-line" d="M213.333 746.667c-94.257 0-170.667-76.41-170.667-170.667v-256c0-94.255 76.41-170.667 170.667-170.667h170.667l-42.667 85.333h-128c-47.128 0-85.333 38.204-85.333 85.333v256c0 47.128 38.205 85.333 85.333 85.333h128l42.667 85.333h-170.667zM682.667 661.333h128c47.13 0 85.333-38.205 85.333-85.333v-256c0-47.13-38.204-85.333-85.333-85.333h-128l-42.667-85.333h170.667c94.255 0 170.667 76.412 170.667 170.667v256c0 94.257-76.412 170.667-170.667 170.667h-170.667l42.667-85.333zM341.333 405.333h341.333v85.333h-341.333v-85.333z" />
<glyph unicode="&#xe92a;" glyph-name="aliens-fill" d="M512 874.667c200.294 0 362.667-162.371 362.667-362.667 0-277.333-234.667-512-362.667-512s-362.667 234.667-362.667 512c0 200.295 162.371 362.667 362.667 362.667zM746.667 448c-106.039 0-192-85.961-192-192 0-6.839 0.358-13.594 1.075-20.275 6.656-0.7 13.414-1.058 20.258-1.058 106.039 0 192 85.961 192 192 0 6.844-0.358 13.602-1.084 20.279-6.656 0.695-13.41 1.054-20.25 1.054zM277.333 448c-6.842 0-13.602-0.358-20.277-1.075-0.698-6.656-1.056-13.414-1.056-20.258 0-106.039 85.961-192 192-192 6.839 0 13.594 0.358 20.279 1.084 0.695 6.656 1.054 13.41 1.054 20.25 0 106.039-85.961 192-192 192z" />
<glyph unicode="&#xe92b;" glyph-name="aliens-line" d="M512 874.667c200.294 0 362.667-162.371 362.667-362.667 0-277.333-234.667-512-362.667-512s-362.667 234.667-362.667 512c0 200.295 162.371 362.667 362.667 362.667zM512 789.333c-153.167 0-277.333-124.166-277.333-277.333 0-204.535 177.707-426.667 277.333-426.667s277.333 222.131 277.333 426.667c0 153.167-124.164 277.333-277.333 277.333zM746.667 490.667c6.839 0 13.594-0.358 20.25-1.054 0.725-6.677 1.084-13.436 1.084-20.279 0-106.039-85.961-192-192-192-6.844 0-13.602 0.358-20.258 1.058-0.717 6.682-1.075 13.436-1.075 20.275 0 106.039 85.961 192 192 192zM277.333 490.667c106.039 0 192-85.961 192-192 0-6.839-0.358-13.594-1.054-20.25-6.686-0.725-13.44-1.084-20.279-1.084-106.039 0-192 85.961-192 192 0 6.844 0.358 13.602 1.056 20.258 6.676 0.717 13.435 1.075 20.277 1.075z" />
<glyph unicode="&#xe92c;" glyph-name="align-bottom" d="M128 149.333h768v-85.333h-768v85.333zM341.333 405.333h128l-170.667-170.667-170.667 170.667h128v426.667h85.333v-426.667zM768 405.333h128l-170.667-170.667-170.667 170.667h128v426.667h85.333v-426.667z" />
<glyph unicode="&#xe92d;" glyph-name="align-center" d="M128 789.333h768v-85.333h-768v85.333zM213.333 149.333h597.333v-85.333h-597.333v85.333zM128 362.667h768v-85.333h-768v85.333zM213.333 576h597.333v-85.333h-597.333v85.333z" />
<glyph unicode="&#xe92e;" glyph-name="align-item-bottom-fill" d="M170.667 789.333c0 23.564 19.103 42.667 42.667 42.667h213.333c23.565 0 42.667-19.103 42.667-42.667v-512c0-23.565-19.102-42.667-42.667-42.667h-213.333c-23.564 0-42.667 19.102-42.667 42.667v512zM597.333 661.333c-23.565 0-42.667-19.103-42.667-42.667v-341.333c0-23.565 19.102-42.667 42.667-42.667h213.333c23.565 0 42.667 19.102 42.667 42.667v341.333c0 23.564-19.102 42.667-42.667 42.667h-213.333zM896 149.333h-768v-85.333h768v85.333z" />
<glyph unicode="&#xe92f;" glyph-name="align-item-bottom-line" d="M384 746.667v-426.667h-128v426.667h128zM213.333 832c-23.564 0-42.667-19.103-42.667-42.667v-512c0-23.565 19.103-42.667 42.667-42.667h213.333c23.565 0 42.667 19.102 42.667 42.667v512c0 23.564-19.102 42.667-42.667 42.667h-213.333zM640 576v-256h128v256h-128zM554.667 618.667c0 23.564 19.102 42.667 42.667 42.667h213.333c23.565 0 42.667-19.103 42.667-42.667v-341.333c0-23.565-19.102-42.667-42.667-42.667h-213.333c-23.565 0-42.667 19.102-42.667 42.667v341.333zM896 149.333h-768v-85.333h768v85.333z" />
<glyph unicode="&#xe930;" glyph-name="align-item-horizontal-center-fill" d="M469.333 789.333v85.333h85.333v-85.333h256c23.565 0 42.667-19.103 42.667-42.667v-213.333c0-23.565-19.102-42.667-42.667-42.667h-256v-85.333h170.667c23.565 0 42.667-19.102 42.667-42.667v-213.333c0-23.565-19.102-42.667-42.667-42.667h-170.667v-85.333h-85.333v85.333h-170.667c-23.564 0-42.667 19.102-42.667 42.667v213.333c0 23.565 19.103 42.667 42.667 42.667h170.667v85.333h-256c-23.564 0-42.667 19.102-42.667 42.667v213.333c0 23.564 19.103 42.667 42.667 42.667h256z" />
<glyph unicode="&#xe931;" glyph-name="align-item-horizontal-center-line" d="M469.333 789.333v85.333h85.333v-85.333h256c23.565 0 42.667-19.103 42.667-42.667v-213.333c0-23.565-19.102-42.667-42.667-42.667h-256v-85.333h170.667c23.565 0 42.667-19.102 42.667-42.667v-213.333c0-23.565-19.102-42.667-42.667-42.667h-170.667v-85.333h-85.333v85.333h-170.667c-23.564 0-42.667 19.102-42.667 42.667v213.333c0 23.565 19.103 42.667 42.667 42.667h170.667v85.333h-256c-23.564 0-42.667 19.102-42.667 42.667v213.333c0 23.564 19.103 42.667 42.667 42.667h256zM341.333 320v-128h341.333v128h-341.333zM256 576h512v128h-512v-128z" />
<glyph unicode="&#xe932;" glyph-name="align-item-left-fill" d="M128 64v768h85.333v-768h-85.333zM298.667 362.667c0 23.565 19.103 42.667 42.667 42.667h341.333c23.565 0 42.667-19.102 42.667-42.667v-213.333c0-23.565-19.102-42.667-42.667-42.667h-341.333c-23.564 0-42.667 19.102-42.667 42.667v213.333zM341.333 789.333c-23.564 0-42.667-19.103-42.667-42.667v-213.333c0-23.565 19.103-42.667 42.667-42.667h512c23.565 0 42.667 19.102 42.667 42.667v213.333c0 23.564-19.102 42.667-42.667 42.667h-512z" />
<glyph unicode="&#xe933;" glyph-name="align-item-left-line" d="M128 64v768h85.333v-768h-85.333zM384 320h256v-128h-256v128zM341.333 405.333c-23.564 0-42.667-19.102-42.667-42.667v-213.333c0-23.565 19.103-42.667 42.667-42.667h341.333c23.565 0 42.667 19.102 42.667 42.667v213.333c0 23.565-19.102 42.667-42.667 42.667h-341.333zM384 576h426.667v128h-426.667v-128zM298.667 746.667c0 23.564 19.103 42.667 42.667 42.667h512c23.565 0 42.667-19.103 42.667-42.667v-213.333c0-23.565-19.102-42.667-42.667-42.667h-512c-23.564 0-42.667 19.102-42.667 42.667v213.333z" />
<glyph unicode="&#xe934;" glyph-name="align-item-right-fill" d="M810.667 64v768h85.333v-768h-85.333zM298.667 362.667c0 23.565 19.103 42.667 42.667 42.667h341.333c23.565 0 42.667-19.102 42.667-42.667v-213.333c0-23.565-19.102-42.667-42.667-42.667h-341.333c-23.564 0-42.667 19.102-42.667 42.667v213.333zM170.667 789.333c-23.564 0-42.667-19.103-42.667-42.667v-213.333c0-23.565 19.103-42.667 42.667-42.667h512c23.565 0 42.667 19.102 42.667 42.667v213.333c0 23.564-19.102 42.667-42.667 42.667h-512z" />
<glyph unicode="&#xe935;" glyph-name="align-item-right-line" d="M810.667 64v768h85.333v-768h-85.333zM384 320h256v-128h-256v128zM341.333 405.333c-23.564 0-42.667-19.102-42.667-42.667v-213.333c0-23.565 19.103-42.667 42.667-42.667h341.333c23.565 0 42.667 19.102 42.667 42.667v213.333c0 23.565-19.102 42.667-42.667 42.667h-341.333zM213.333 576h426.667v128h-426.667v-128zM128 746.667c0 23.564 19.103 42.667 42.667 42.667h512c23.565 0 42.667-19.103 42.667-42.667v-213.333c0-23.565-19.102-42.667-42.667-42.667h-512c-23.564 0-42.667 19.102-42.667 42.667v213.333z" />
<glyph unicode="&#xe936;" glyph-name="align-item-top-fill" d="M896 832h-768v-85.333h768v85.333zM597.333 661.333c-23.565 0-42.667-19.103-42.667-42.667v-341.333c0-23.565 19.102-42.667 42.667-42.667h213.333c23.565 0 42.667 19.102 42.667 42.667v341.333c0 23.564-19.102 42.667-42.667 42.667h-213.333zM170.667 618.667c0 23.564 19.103 42.667 42.667 42.667h213.333c23.565 0 42.667-19.103 42.667-42.667v-512c0-23.565-19.102-42.667-42.667-42.667h-213.333c-23.564 0-42.667 19.102-42.667 42.667v512z" />
<glyph unicode="&#xe937;" glyph-name="align-item-top-line" d="M896 832h-768v-85.333h768v85.333zM640 576v-256h128v256h-128zM554.667 618.667c0 23.564 19.102 42.667 42.667 42.667h213.333c23.565 0 42.667-19.103 42.667-42.667v-341.333c0-23.565-19.102-42.667-42.667-42.667h-213.333c-23.565 0-42.667 19.102-42.667 42.667v341.333zM384 576v-426.667h-128v426.667h128zM213.333 661.333c-23.564 0-42.667-19.103-42.667-42.667v-512c0-23.565 19.103-42.667 42.667-42.667h213.333c23.565 0 42.667 19.102 42.667 42.667v512c0 23.564-19.102 42.667-42.667 42.667h-213.333z" />
<glyph unicode="&#xe938;" glyph-name="align-item-vertical-center-fill" d="M170.667 149.333c0-23.565 19.103-42.667 42.667-42.667h213.333c23.565 0 42.667 19.102 42.667 42.667v256h85.333v-170.667c0-23.565 19.102-42.667 42.667-42.667h213.333c23.565 0 42.667 19.102 42.667 42.667v170.667h85.333v85.333h-85.333v170.667c0 23.564-19.102 42.667-42.667 42.667h-213.333c-23.565 0-42.667-19.103-42.667-42.667v-170.667h-85.333v256c0 23.564-19.102 42.667-42.667 42.667h-213.333c-23.564 0-42.667-19.103-42.667-42.667v-256h-85.333v-85.333h85.333v-256z" />
<glyph unicode="&#xe939;" glyph-name="align-item-vertical-center-line" d="M384 192v512h-128v-512h128zM213.333 106.667c-23.564 0-42.667 19.102-42.667 42.667v256h-85.333v85.333h85.333v256c0 23.564 19.102 42.667 42.667 42.667h213.333c23.565 0 42.667-19.102 42.667-42.667v-256h85.333v170.667c0 23.564 19.102 42.667 42.667 42.667h213.333c23.565 0 42.667-19.103 42.667-42.667v-170.667h85.333v-85.333h-85.333v-170.667c0-23.565-19.102-42.667-42.667-42.667h-213.333c-23.565 0-42.667 19.102-42.667 42.667v170.667h-85.333v-256c0-23.565-19.102-42.667-42.667-42.667h-213.333zM640 277.333h128v341.333h-128v-341.333z" />
<glyph unicode="&#xe93a;" glyph-name="align-justify" d="M128 789.333h768v-85.333h-768v85.333zM128 149.333h768v-85.333h-768v85.333zM128 362.667h768v-85.333h-768v85.333zM128 576h768v-85.333h-768v85.333z" />
<glyph unicode="&#xe93b;" glyph-name="align-left" d="M128 789.333h768v-85.333h-768v85.333zM128 149.333h597.333v-85.333h-597.333v85.333zM128 362.667h768v-85.333h-768v85.333zM128 576h597.333v-85.333h-597.333v85.333z" />
<glyph unicode="&#xe93c;" glyph-name="align-right" d="M128 789.333h768v-85.333h-768v85.333zM298.667 149.333h597.333v-85.333h-597.333v85.333zM128 362.667h768v-85.333h-768v85.333zM298.667 576h597.333v-85.333h-597.333v85.333z" />
<glyph unicode="&#xe93d;" glyph-name="align-top" d="M128 832h768v-85.333h-768v85.333zM341.333 490.667v-426.667h-85.333v426.667h-128l170.667 170.667 170.667-170.667h-128zM768 490.667v-426.667h-85.333v426.667h-128l170.667 170.667 170.667-170.667h-128z" />
<glyph unicode="&#xe93e;" glyph-name="align-vertically" d="M128 490.667h768v-85.333h-768v85.333zM768 192v-128h-85.333v128h-128l170.667 170.667 170.667-170.667h-128zM341.333 192v-128h-85.333v128h-128l170.667 170.667 170.667-170.667h-128zM768 704h128l-170.667-170.667-170.667 170.667h128v128h85.333v-128zM341.333 704h128l-170.667-170.667-170.667 170.667h128v128h85.333v-128z" />
<glyph unicode="&#xe93f;" glyph-name="alipay-fill" d="M914.022 304.742c-163.392 49.186-258.377 78.507-284.945 87.962 24.235 41.643 43.691 89.429 56.32 141.653h-139.264v47.104h170.667v29.013h-170.667v78.848h-65.536c-11.947 0-13.312-10.581-13.312-10.581v-67.925h-160.085v-29.013h160.085v-47.104h-131.072v-26.283h265.557c-9.557-33.109-22.528-64.512-37.888-92.843-60.075 19.797-93.525 33.451-166.912 40.277-138.923 13.312-171.008-63.147-176.128-109.909-7.509-71.339 55.637-129.365 149.845-129.365s157.013 43.691 216.747 116.053c49.775-23.804 142.417-65.079 277.926-123.827-76.732-113.131-206.366-187.469-353.361-187.469-235.642 0-426.667 191.027-426.667 426.667 0 235.642 191.025 426.667 426.667 426.667 235.639 0 426.667-191.025 426.667-426.667 0-50.253-8.687-98.479-24.644-143.258zM359.765 261.632c-99.669 0-115.371 63.147-110.251 89.429s34.133 60.416 89.771 60.416c63.829 0 120.832-16.384 189.44-49.493-48.469-63.147-107.52-100.352-168.96-100.352z" />
<glyph unicode="&#xe940;" glyph-name="alipay-line" d="M785.404 243.614c-92.698 40.555-158.686 70.229-197.969 89.015-59.733-72.363-122.539-116.053-216.747-116.053s-157.355 58.027-149.845 129.365c5.12 46.763 37.205 123.221 176.128 109.909 73.387-6.827 106.837-20.48 166.912-40.277 15.36 28.331 28.331 59.733 37.888 92.843h-265.557v26.283h131.072v47.104h-160.085v29.013h160.085v67.925c0 0 1.365 10.581 13.312 10.581h65.536v-78.848h170.667v-29.013h-170.667v-47.104h139.264c-12.629-52.224-32.085-100.011-56.32-141.653 21.773-7.748 89.472-28.834 203.106-63.253 13.679 36.928 21.15 76.864 21.15 118.549 0 188.513-152.819 341.333-341.333 341.333s-341.333-152.82-341.333-341.333c0-188.514 152.82-341.333 341.333-341.333 111.859 0 211.149 53.807 273.404 136.947zM512 21.333c-235.642 0-426.667 191.027-426.667 426.667 0 235.642 191.025 426.667 426.667 426.667 235.639 0 426.667-191.025 426.667-426.667 0-235.639-191.027-426.667-426.667-426.667zM359.765 261.632c61.44 0 120.491 37.205 168.96 100.352-68.608 33.109-125.611 49.493-189.44 49.493-55.637 0-84.651-34.133-89.771-60.416s10.581-89.429 110.251-89.429z" />
<glyph unicode="&#xe941;" glyph-name="amazon-fill" d="M938.539 182.212c0-31.053-17.284-90.782-56.094-123.601-7.77-5.99-15.539-2.59-12.134 6.114 11.29 27.639 37.184 91.622 25.050 106.317-8.58 11.17-43.989 10.355-74.189 7.765-13.79-1.745-25.894-2.59-35.29-4.454-8.7-0.721-10.475 6.925-1.775 12.915 11.17 7.889 23.275 13.884 37.154 18.249 49.050 14.694 105.754 5.85 113.873-3.524 1.57-1.813 3.405-6.835 3.405-19.78zM856.55 126.959c-11.17-8.61-23.275-16.469-35.379-23.424-90.569-54.438-207.846-82.918-309.705-82.918-163.945 0-310.607 60.459-421.861 161.596-9.545 7.765-1.656 19.059 9.515 12.945 119.865-69.973 268.273-112.307 421.891-112.307 96.683 0 200.887 18.095 300.16 57.028 6.925 2.59 14.694 6.11 21.5 8.58 15.654 7.074 29.414-10.325 13.879-21.5zM593.284 597.553c0.034 44.467 1.796 70.62-12.937 93.067-13.073 18.465-35.533 29.539-66.918 27.804-34.057-1.883-70.618-24.209-79.957-65.122-1.796-9.338-7.294-18.571-18.606-20.615l-103.921 13.215c-7.436 1.762-18.712 7.4-15.012 22.271 22.306 117.417 122.668 158.33 217.495 163.827h22.306c52.049 0 118.933-14.871 161.749-53.951 51.908-48.454 46.374-113.576 46.374-184.337v-167.528c0-50.253 20.369-72.521 40.879-98.705 5.534-9.34 7.437-20.369-1.903-27.947-20.51-18.569-59.486-52.011-81.792-70.583-7.433-5.67-20.834-6.276-26.005-1.937-32.845 27.554-40.879 42.816-61.248 70.763-35.379-37.18-65.122-57.69-100.501-68.826-22.306-5.67-46.374-9.233-76.117-9.233-89.189 0-159.808 55.607-159.808 165.589 0 87.394 46.516 146.85 115.197 174.964 68.68 28.116 168.528 37.124 200.724 37.283zM572.915 376.073c22.165 37.18 20.369 67.678 20.369 135.885-27.806 0-55.748-1.937-79.855-7.578-44.578-12.932-79.957-41.015-79.957-100.501 0-46.515 24.209-78.161 65.088-78.161 5.636 0 10.573 0.704 14.869 1.903 28.557 7.97 46.413 22.306 59.486 48.452z" />
<glyph unicode="&#xe942;" glyph-name="amazon-line" d="M666.718 336.209c-47.236-69.056-116.42-101.722-197.355-101.722-98.309 0-182.46 75.635-170.36 175.953 13.423 111.287 99.816 159.176 243.546 176.77 25.647 3.14 36.267 4.022 91.601 8.122 2.078 0.154 4.036 0.3 5.892 0.44-0.009 3.036-0.013 6.090-0.013 9.163 0 76.625-45.564 128.93-106.667 128.93-61.308 0-104.124-31.887-130.337-107.793l-80.66 27.853c37.863 109.648 112.556 165.274 210.997 165.274 111.049 0 192-92.927 192-214.263 0-113.018 6.967-202.912 20.621-237.122 15.189-38.063 20.727-47.637 37.705-68.809l-66.569-53.389c-22.323 27.836-32.111 44.753-50.394 90.569l-0.009 0.026zM906.974 83.401c-11.554-8.529-31.637-3.456-22.545 18.795 11.29 27.644 23.326 60.062 11.191 74.756-8.977 10.867-19.951 16.282-43.836 16.282-19.61 0-29.457-2.534-42.449-3.401-8.713-0.585-12.523 12.676-3.895 18.769 11.17 7.889 23.215 14.071 37.154 18.244 49.050 14.694 106.867 6.643 113.873-3.52 15.59-22.618-8.461-109.619-49.493-139.925zM856.55 129.673c-11.17-10.906-23.275-20.855-35.379-29.662-90.569-68.932-207.846-104.998-309.705-104.998-163.945 0-310.607 76.557-421.861 204.617-9.545 9.839-1.656 24.137 9.515 16.397 119.865-88.606 268.273-142.208 421.891-142.208 96.683 0 200.887 22.912 300.16 72.209 6.925 3.277 14.694 7.74 21.5 10.867 15.654 8.96 29.414-13.077 13.879-27.221zM640.457 510.234c-53.696-3.981-63.829-4.821-87.539-7.723-108.919-13.333-162.016-42.765-169.195-102.289-5.37-44.523 34.548-80.401 85.641-80.401 86.997 0 150.067 52.386 171.605 190.447-0.171-0.013-0.341-0.021-0.512-0.034z" />
<glyph unicode="&#xe943;" glyph-name="anchor-fill" d="M554.667 538.71v-428.972c154.398 19.349 276.774 142.323 296.026 297.481h-125.359l158.046 254.114c35.191-62.35 55.287-134.434 55.287-211.238 0-236.8-191.027-428.762-426.667-428.762-235.642 0-426.667 191.962-426.667 428.762 0 76.804 20.095 148.889 55.288 211.238l158.045-254.114h-125.359c19.253-155.157 141.627-278.131 296.026-297.481v428.972c-73.61 18.946-128 85.766-128 165.29 0 94.257 76.41 170.667 170.667 170.667 94.255 0 170.667-76.41 170.667-170.667 0-79.524-54.391-146.344-128-165.29zM512 618.667c47.13 0 85.333 38.205 85.333 85.333s-38.204 85.333-85.333 85.333c-47.13 0-85.333-38.205-85.333-85.333s38.204-85.333 85.333-85.333z" />
<glyph unicode="&#xe944;" glyph-name="anchor-line" d="M87.44 490.667h211.226v-85.333h-125.359c19.253-154.398 141.627-276.774 296.026-296.026v429.402c-73.61 18.946-128 85.766-128 165.29 0 94.257 76.41 170.667 170.667 170.667 94.255 0 170.667-76.41 170.667-170.667 0-79.524-54.391-146.344-128-165.29v-429.402c154.398 19.251 276.774 141.628 296.026 296.026h-125.359v85.333h211.226c1.395-14.033 2.108-28.267 2.108-42.667 0-235.639-191.027-426.667-426.667-426.667-235.642 0-426.667 191.027-426.667 426.667 0 14.4 0.713 28.634 2.107 42.667zM512 618.667c47.13 0 85.333 38.205 85.333 85.333s-38.204 85.333-85.333 85.333c-47.13 0-85.333-38.205-85.333-85.333s38.204-85.333 85.333-85.333z" />
<glyph unicode="&#xe945;" glyph-name="ancient-gate-fill" d="M297.135 832h429.73c10.603-73.472 73.57-128 147.802-128 14.174 0 28.271 2.018 41.877 5.992-7.863-76.13-72.009-133.992-148.544-133.992h-512c-76.535 0-140.681 57.862-148.543 133.992 13.604-3.974 27.704-5.992 41.876-5.992 74.234 0 137.197 54.528 147.802 128zM980.42 485.914c-18.62-10.569-40.149-16.602-63.087-16.602-47.377 0-88.742 25.741-110.878 64h-588.913c-22.132-38.259-63.498-64-110.876-64-22.939 0-44.468 6.033-63.088 16.602-0.603-5.449-0.912-10.991-0.912-16.602 0-59.571 34.881-110.993 85.333-134.963v-270.349h256v85.333c0 70.694 57.31 128 128 128 70.694 0 128-57.306 128-128v-85.333h256v270.349c50.453 23.97 85.333 75.392 85.333 134.963 0 5.611-0.311 11.153-0.913 16.602z" />
<glyph unicode="&#xe946;" glyph-name="ancient-gate-line" d="M297.134 832h429.727c10.607-73.472 73.57-128 147.806-128 14.17 0 28.271 2.017 41.873 5.992-7.859-76.13-72.009-133.992-148.54-133.992h-512.001c-76.535 0-140.68 57.862-148.543 133.992 13.604-3.974 27.704-5.992 41.876-5.992 74.234 0 137.197 54.528 147.802 128zM721.041 675.942c-23.906 20.702-42.556 44.277-55.949 70.725h-306.187c-13.393-26.447-32.043-50.022-55.948-70.725-6.036-5.228-12.206-10.097-18.508-14.609h455.096c-6.298 4.512-12.467 9.381-18.505 14.609zM917.333 469.312c22.938 0 44.467 6.033 63.087 16.602 0.602-5.449 0.913-10.991 0.913-16.602 0-59.571-34.88-110.993-85.333-134.963v-270.349h-298.667v85.333c0 47.13-38.204 85.333-85.333 85.333s-85.333-38.204-85.333-85.333v-85.333h-298.667v270.349c-50.452 23.97-85.333 75.392-85.333 134.963 0 5.611 0.309 11.153 0.912 16.602 18.62-10.569 40.149-16.602 63.088-16.602 47.378 0 88.744 25.741 110.876 64h588.913c22.135-38.259 63.501-64 110.878-64zM809.097 413.453c-16.538 9.749-31.3 21.257-44.288 34.526h-505.617c-12.986-13.269-27.749-24.777-44.286-34.526-8.654-5.103-17.493-9.54-26.518-13.316l24.946-11.853v-238.95h128c0 47.13 16.662 87.356 49.987 120.678 33.325 33.327 73.55 49.988 120.68 49.988s87.356-16.661 120.678-49.988c33.327-33.323 49.988-73.549 49.988-120.678h128v238.95l24.947 11.853c-9.024 3.776-17.865 8.213-26.517 13.316z" />
<glyph unicode="&#xe947;" glyph-name="ancient-pavilion-fill" d="M64.677 623.924c7.002-83.328 67.129-152.543 148.659-171.124v-303.522h-85.333v-85.333h768.002v85.333h-85.333v303.522c81.527 18.581 141.658 87.796 148.655 171.124-20.924-3.499-42.108-5.257-63.322-5.257-162.735 0-307.797 102.574-362.039 256h-43.925c-54.242-153.426-199.304-256-362.037-256-21.217 0-42.398 1.759-63.325 5.257zM725.338 149.278h-426.668v298.722h426.668v-298.722z" />
<glyph unicode="&#xe948;" glyph-name="ancient-pavilion-line" d="M64.677 623.924c7.002-83.328 67.129-152.543 148.659-171.124v-303.522h-85.333v-85.333h768.002v85.333h-85.333v303.522c81.527 18.581 141.658 87.796 148.655 171.124-20.924-3.499-42.108-5.257-63.322-5.257-162.735 0-307.797 102.574-362.039 256h-43.925c-54.242-153.426-199.304-256-362.037-256-21.217 0-42.398 1.759-63.325 5.257zM725.338 149.278h-426.668v298.722h426.668v-298.722zM791.706 536l-11.703-2.667h-536.001l-11.702 2.667c-5.806 1.323-11.368 3.053-16.686 5.189 65.565 12.104 126.684 38.193 183.359 78.268 45.080 31.878 82.759 69.358 113.031 112.44 30.272-43.082 67.947-80.561 113.028-112.44 56.674-40.075 117.794-66.164 183.36-78.268-5.316-2.136-10.88-3.866-16.687-5.189z" />
<glyph unicode="&#xe949;" glyph-name="android-fill" d="M272.312 790.694c65.693 52.55 149.021 83.972 239.688 83.972s173.995-31.423 239.689-83.972l62.012 62.011 60.339-60.34-62.012-62.011c52.548-65.693 83.972-149.021 83.972-239.688v-42.667h-768v42.667c0 90.667 31.423 173.995 83.972 239.688l-62.011 62.011 60.34 60.34 62.011-62.011zM128 362.667h768v-298.667c0-23.565-19.102-42.667-42.667-42.667h-682.667c-23.564 0-42.667 19.102-42.667 42.667v298.667zM384 576c23.564 0 42.667 19.103 42.667 42.667s-19.103 42.667-42.667 42.667c-23.564 0-42.667-19.103-42.667-42.667s19.103-42.667 42.667-42.667zM640 576c23.565 0 42.667 19.103 42.667 42.667s-19.102 42.667-42.667 42.667c-23.565 0-42.667-19.103-42.667-42.667s19.102-42.667 42.667-42.667z" />
<glyph unicode="&#xe94a;" glyph-name="android-line" d="M810.667 405.333h-597.333v-298.667h597.333v298.667zM810.667 490.667c0 164.949-133.717 298.667-298.667 298.667s-298.667-133.718-298.667-298.667h597.333zM272.312 790.694c65.693 52.55 149.021 83.972 239.688 83.972s173.995-31.423 239.689-83.972l62.012 62.011 60.339-60.34-62.012-62.011c52.548-65.693 83.972-149.021 83.972-239.688v-426.667c0-23.565-19.102-42.667-42.667-42.667h-682.667c-23.564 0-42.667 19.102-42.667 42.667v426.667c0 90.667 31.423 173.995 83.972 239.688l-62.011 62.011 60.34 60.34 62.011-62.011zM384 576c-23.564 0-42.667 19.103-42.667 42.667s19.103 42.667 42.667 42.667c23.564 0 42.667-19.103 42.667-42.667s-19.103-42.667-42.667-42.667zM640 576c-23.565 0-42.667 19.103-42.667 42.667s19.102 42.667 42.667 42.667c23.565 0 42.667-19.103 42.667-42.667s-19.102-42.667-42.667-42.667z" />
<glyph unicode="&#xe94b;" glyph-name="angularjs-fill" d="M512.009 874.667l396.8-141.653-60.523-525.227-336.277-186.453-336.279 186.453-60.521 525.227 396.8 141.653zM512.009 780.373l-248.053-556.8h92.487l49.866 124.587h210.549l49.865-124.587h92.489l-247.202 556.8zM584.465 424.96h-144.913l72.457 174.507 72.457-174.507z" />
<glyph unicode="&#xe94c;" glyph-name="angularjs-line" d="M747.669 249.57l20.868 11.571 47.74 414.297-304.269 108.62-304.268-108.62 47.739-414.297 20.218-11.209 236.311 530.441 235.661-530.803zM700.783 223.573h-34.061l-49.865 124.587h-210.549l-49.866-124.587h-33.207l188.774-104.666 188.774 104.666zM512.009 874.667l396.8-141.653-60.523-525.227-336.277-186.453-336.279 186.453-60.521 525.227 396.8 141.653zM584.465 424.96l-72.457 174.507-72.457-174.507h144.913z" />
<glyph unicode="&#xe94d;" glyph-name="anticlockwise-2-fill" d="M597.333 789.333h85.333c117.82 0 213.333-95.513 213.333-213.333v-170.667h-85.333v170.667c0 70.692-57.306 128-128 128h-85.333v-128l-213.333 170.667 213.333 170.667v-128zM640 490.667v-426.667c0-23.565-19.102-42.667-42.667-42.667h-426.667c-23.564 0-42.667 19.102-42.667 42.667v426.667c0 23.565 19.103 42.667 42.667 42.667h426.667c23.565 0 42.667-19.102 42.667-42.667z" />
<glyph unicode="&#xe94e;" glyph-name="anticlockwise-2-line" d="M572.339 704.002l78.012-78.013-60.339-60.34-181.018 181.020 181.018 181.019 60.339-60.34-78.012-78.013h110.327c117.82 0 213.333-95.513 213.333-213.333v-170.668h-85.333v170.668c0 70.692-57.306 128-128 128h-110.327zM640 490.667v-426.667c0-23.561-19.102-42.667-42.667-42.667h-426.667c-23.564 0-42.667 19.106-42.667 42.667v426.667c0 23.565 19.103 42.668 42.667 42.668h426.667c23.565 0 42.667-19.104 42.667-42.668zM554.667 448h-341.333v-341.333h341.333v341.333z" />
<glyph unicode="&#xe94f;" glyph-name="anticlockwise-fill" d="M256 533.333h128l-170.667-213.333-170.667 213.333h128v85.333c0 117.821 95.513 213.333 213.333 213.333h170.667v-85.333h-170.667c-70.692 0-128-57.308-128-128v-85.333zM469.333 576h426.667c23.565 0 42.667-19.103 42.667-42.667v-426.667c0-23.565-19.102-42.667-42.667-42.667h-426.667c-23.565 0-42.667 19.102-42.667 42.667v426.667c0 23.564 19.102 42.667 42.667 42.667z" />
<glyph unicode="&#xe950;" glyph-name="anticlockwise-line" d="M469.333 576h426.667c23.561 0 42.667-19.103 42.667-42.667v-426.667c0-23.565-19.106-42.667-42.667-42.667h-426.667c-23.565 0-42.668 19.102-42.668 42.667v426.667c0 23.564 19.104 42.667 42.668 42.667zM512 490.667v-341.333h341.333v341.333h-341.333zM255.998 508.339l78.013 78.013 60.34-60.341-181.020-181.018-181.019 181.018 60.34 60.341 78.013-78.013v110.327c0 117.821 95.513 213.333 213.333 213.333h170.668v-85.333h-170.668c-70.692 0-128-57.308-128-128v-110.327z" />
<glyph unicode="&#xe951;" glyph-name="app-store-fill" d="M512 874.667c235.639 0 426.667-191.025 426.667-426.667 0-235.639-191.027-426.667-426.667-426.667-235.642 0-426.667 191.027-426.667 426.667 0 235.642 191.025 426.667 426.667 426.667zM376.43 305.378c-16.834 20.326-37.772 27.605-63.086 21.705l-6.42-1.749-25.118-43.354c-9.635-16.862-3.957-38.366 12.903-48 15.455-8.832 34.813-4.8 45.353 8.922l2.647 3.981 33.72 58.496zM563.614 590.452c-20.817-17.204-41.809-68.131-12.386-118.883l129.719-224.687c9.805-16.862 31.138-22.537 48-12.902 15.454 8.99 21.513 27.665 14.993 43.699l-2.091 4.301-34.236 59.354h50.752c19.439 0 35.098 15.654 35.098 35.098 0 17.946-13.342 32.666-30.686 34.825l-4.412 0.273h-91.354l-93.572 162.022-9.826 16.901zM575.484 720.344c-15.454 8.832-34.812 4.797-45.355-8.923l-2.645-3.98-15.654-27.011-15.313 27.011c-9.805 16.86-31.138 22.537-48 12.903-15.454-8.989-21.513-27.664-14.997-43.701l2.095-4.299 35.785-62.107-114.581-198.537h-89.462c-19.441 0-35.097-15.654-35.097-35.098 0-17.946 13.34-32.666 30.683-34.825l4.414-0.273h319.141c14.545 27.298-2.586 66.082-34.573 69.892l-5.171 0.303h-108.902l150.537 260.645c9.634 16.861 3.959 38.366-12.902 48z" />
<glyph unicode="&#xe952;" glyph-name="app-store-line" d="M512 874.667c235.639 0 426.667-191.025 426.667-426.667 0-235.639-191.027-426.667-426.667-426.667-235.642 0-426.667 191.027-426.667 426.667 0 235.642 191.025 426.667 426.667 426.667zM512 789.333c-188.513 0-341.333-152.82-341.333-341.333s152.82-341.333 341.333-341.333c188.514 0 341.333 152.819 341.333 341.333s-152.819 341.333-341.333 341.333zM376.43 305.378l-33.72-58.496c-9.635-16.862-31.14-22.537-48-12.902s-22.538 31.138-12.903 48l25.118 43.354c28.215 8.772 51.269 2.065 69.505-19.955zM563.614 590.452l103.398-178.923h91.354c19.439 0 35.098-15.659 35.098-35.098 0-19.443-15.659-35.098-35.098-35.098h-50.752l34.236-59.354c9.634-16.862 3.955-38.195-12.902-48-16.862-9.634-38.195-3.959-48 12.902l-129.719 224.687c-29.423 50.752-8.431 101.678 12.386 118.883zM575.484 720.344c16.862-9.634 22.537-31.139 12.902-48l-150.537-260.645h108.902c35.268 0 55.053-41.463 39.744-70.195h-319.141c-19.441 0-35.097 15.659-35.097 35.098 0 19.443 15.656 35.098 35.097 35.098h89.462l114.581 198.537-35.785 62.107c-9.635 16.861-3.959 38.194 12.902 48 16.862 9.635 38.195 3.957 48-12.903l15.313-27.011 15.654 27.011c9.634 16.86 31.138 22.537 48 12.903z" />
<glyph unicode="&#xe953;" glyph-name="apple-fill" d="M498.065 651.862c-37.376 0-95.233 42.496-156.161 40.96-80.384-1.024-154.112-46.592-195.584-118.784-83.456-144.897-21.504-358.913 59.904-476.673 39.936-57.344 87.040-121.856 149.504-119.808 59.904 2.56 82.433 38.912 155.137 38.912 72.192 0 92.672-38.912 156.16-37.376 64.512 1.024 105.472 58.368 144.896 116.224 45.568 66.56 64.512 131.072 65.536 134.656-1.536 0.512-125.44 48.128-126.976 191.488-1.024 119.809 97.792 177.153 102.4 179.713-56.32 82.432-142.848 91.648-173.056 93.696-78.848 6.144-144.896-43.008-181.76-43.008zM631.185 772.694c33.28 39.936 55.296 95.744 49.152 151.040-47.616-2.048-104.96-31.744-139.264-71.68-30.72-35.328-57.344-92.16-50.176-146.432 52.736-4.096 107.008 27.136 140.288 67.072z" />
<glyph unicode="&#xe954;" glyph-name="apple-line" d="M673.195 609.795c-20.169 1.571-41.839-3.26-75.021-15.904 2.786 1.062-31.667-12.419-41.327-15.791-21.406-7.473-39.027-11.572-58.782-11.572-19.554 0-37.585 3.907-58.266 10.886-6.63 2.237-13.297 4.712-21.545 7.933-3.537 1.382-16.335 6.461-19.133 7.557-27.654 10.83-43.215 14.91-56.13 14.591-49.177-0.627-95.713-29.026-122.726-76.049-55.129-95.714-24.603-268.74 55.984-385.314 42.906-61.606 66.391-83.627 75.836-83.324 9.485 0.41 16.46 2.415 33.437 9.613 3.378 1.438 3.378 1.438 7.097 3.025 42.91 18.283 72.951 26.355 118.246 26.355 43.563 0 72.657-7.923 113.843-25.681 3.78-1.634 3.78-1.634 7.172-3.093 16.969-7.27 23.091-8.866 33.788-8.61 15.253 0.239 34.078 17.818 75.84 79.104 11.435 16.704 21.542 34.257 30.31 52.028-5.641 4.655-11.243 9.604-16.725 14.827-54.993 52.416-89.007 123.085-89.941 210.355-0.593 69.141 22.025 129.034 60.139 178.395-15.774 6.134-33.169 9.383-52.096 10.668zM679.825 694.87c30.208-2.048 116.736-11.264 173.056-93.696-4.608-2.56-103.424-59.904-102.4-179.713 1.536-143.36 125.44-190.976 126.976-191.488-1.024-3.584-19.968-68.096-65.536-134.656-39.424-57.856-80.384-115.2-144.896-116.224-63.488-1.536-83.968 37.376-156.16 37.376-72.704 0-95.233-36.352-155.137-38.912-62.464-2.048-109.568 62.464-149.504 119.808-81.408 117.76-143.36 331.776-59.904 476.673 41.472 72.192 115.2 117.76 195.584 118.784 60.928 1.536 118.785-40.96 156.161-40.96 36.864 0 102.912 49.152 181.76 43.008zM631.185 772.694c-33.28-39.936-87.552-71.168-140.288-67.072-7.168 54.272 19.456 111.104 50.176 146.432 34.304 39.936 91.648 69.632 139.264 71.68 6.144-55.296-15.872-111.104-49.152-151.040z" />
<glyph unicode="&#xe955;" glyph-name="apps-2-add-fill" d="M106.667 661.333c0-106.039 85.961-192 192-192s192 85.961 192 192c0 106.039-85.961 192-192 192s-192-85.961-192-192zM106.667 234.667c0-106.039 85.961-192 192-192s192 85.961 192 192c0 106.039-85.961 192-192 192s-192-85.961-192-192zM533.333 234.667c0-106.039 85.961-192 192-192s192 85.961 192 192c0 106.039-85.961 192-192 192s-192-85.961-192-192zM682.667 490.667v128h-128v85.333h128v128h85.333v-128h128v-85.333h-128v-128h-85.333z" />
<glyph unicode="&#xe956;" glyph-name="apps-2-add-line" d="M106.667 661.333c0-106.039 85.961-192 192-192s192 85.961 192 192c0 106.039-85.961 192-192 192s-192-85.961-192-192zM106.667 234.667c0-106.039 85.961-192 192-192s192 85.961 192 192c0 106.039-85.961 192-192 192s-192-85.961-192-192zM533.333 234.667c0-106.039 85.961-192 192-192s192 85.961 192 192c0 106.039-85.961 192-192 192s-192-85.961-192-192zM405.333 661.333c0-58.91-47.756-106.667-106.667-106.667s-106.667 47.756-106.667 106.667c0 58.91 47.756 106.667 106.667 106.667s106.667-47.756 106.667-106.667zM405.333 234.667c0-58.91-47.756-106.667-106.667-106.667s-106.667 47.757-106.667 106.667c0 58.91 47.756 106.667 106.667 106.667s106.667-47.757 106.667-106.667zM832 234.667c0-58.91-47.757-106.667-106.667-106.667s-106.667 47.757-106.667 106.667c0 58.91 47.757 106.667 106.667 106.667s106.667-47.757 106.667-106.667zM682.667 490.667v128h-128v85.333h128v128h85.333v-128h128v-85.333h-128v-128h-85.333z" />
<glyph unicode="&#xe957;" glyph-name="apps-2-fill" d="M298.667 469.333c-106.039 0-192 85.961-192 192s85.961 192 192 192c106.039 0 192-85.961 192-192s-85.961-192-192-192zM298.667 42.667c-106.039 0-192 85.961-192 192s85.961 192 192 192c106.039 0 192-85.961 192-192s-85.961-192-192-192zM725.333 469.333c-106.039 0-192 85.961-192 192s85.961 192 192 192c106.039 0 192-85.961 192-192s-85.961-192-192-192zM725.333 42.667c-106.039 0-192 85.961-192 192s85.961 192 192 192c106.039 0 192-85.961 192-192s-85.961-192-192-192z" />
<glyph unicode="&#xe958;" glyph-name="apps-2-line" d="M298.667 469.333c-106.039 0-192 85.961-192 192s85.961 192 192 192c106.039 0 192-85.961 192-192s-85.961-192-192-192zM298.667 42.667c-106.039 0-192 85.961-192 192s85.961 192 192 192c106.039 0 192-85.961 192-192s-85.961-192-192-192zM725.333 469.333c-106.039 0-192 85.961-192 192s85.961 192 192 192c106.039 0 192-85.961 192-192s-85.961-192-192-192zM725.333 42.667c-106.039 0-192 85.961-192 192s85.961 192 192 192c106.039 0 192-85.961 192-192s-85.961-192-192-192zM298.667 554.667c58.91 0 106.667 47.756 106.667 106.667s-47.756 106.667-106.667 106.667c-58.91 0-106.667-47.756-106.667-106.667s47.756-106.667 106.667-106.667zM298.667 128c58.91 0 106.667 47.757 106.667 106.667s-47.756 106.667-106.667 106.667c-58.91 0-106.667-47.757-106.667-106.667s47.756-106.667 106.667-106.667zM725.333 554.667c58.91 0 106.667 47.756 106.667 106.667s-47.757 106.667-106.667 106.667c-58.91 0-106.667-47.756-106.667-106.667s47.757-106.667 106.667-106.667zM725.333 128c58.91 0 106.667 47.757 106.667 106.667s-47.757 106.667-106.667 106.667c-58.91 0-106.667-47.757-106.667-106.667s47.757-106.667 106.667-106.667z" />
<glyph unicode="&#xe959;" glyph-name="apps-fill" d="M288 853.333c100.148 0 181.333-81.186 181.333-181.333v-181.333h-181.333c-100.148 0-181.333 81.186-181.333 181.333s81.186 181.333 181.333 181.333zM288 405.333h181.333v-181.333c0-100.147-81.186-181.333-181.333-181.333s-181.333 81.186-181.333 181.333c0 100.147 81.186 181.333 181.333 181.333zM736 853.333c100.147 0 181.333-81.186 181.333-181.333s-81.186-181.333-181.333-181.333h-181.333v181.333c0 100.148 81.186 181.333 181.333 181.333zM554.667 405.333h181.333c100.147 0 181.333-81.186 181.333-181.333s-81.186-181.333-181.333-181.333c-100.147 0-181.333 81.186-181.333 181.333v181.333z" />
<glyph unicode="&#xe95a;" glyph-name="apps-line" d="M288 853.333c100.148 0 181.333-81.186 181.333-181.333v-181.333h-181.333c-100.148 0-181.333 81.186-181.333 181.333s81.186 181.333 181.333 181.333zM384 576v96c0 53.019-42.981 96-96 96s-96-42.981-96-96c0-53.019 42.981-96 96-96h96zM288 405.333h181.333v-181.333c0-100.147-81.186-181.333-181.333-181.333s-181.333 81.186-181.333 181.333c0 100.147 81.186 181.333 181.333 181.333zM288 320c-53.019 0-96-42.982-96-96s42.981-96 96-96c53.019 0 96 42.982 96 96v96h-96zM736 853.333c100.147 0 181.333-81.186 181.333-181.333s-81.186-181.333-181.333-181.333h-181.333v181.333c0 100.148 81.186 181.333 181.333 181.333zM736 576c53.018 0 96 42.981 96 96s-42.982 96-96 96c-53.018 0-96-42.981-96-96v-96h96zM554.667 405.333h181.333c100.147 0 181.333-81.186 181.333-181.333s-81.186-181.333-181.333-181.333c-100.147 0-181.333 81.186-181.333 181.333v181.333zM640 320v-96c0-53.018 42.982-96 96-96s96 42.982 96 96c0 53.018-42.982 96-96 96h-96z" />
<glyph unicode="&#xe95b;" glyph-name="archive-2-fill" d="M938.667 106.667v554.667l-85.333 170.667h-682.667l-85.333-170.817v-554.516c0-23.565 19.103-42.667 42.667-42.667h768c23.565 0 42.667 19.102 42.667 42.667zM223.395 746.667h577.194l42.667-85.333h-662.484l42.624 85.333zM384 490.667h256v-85.333h-256v85.333z" />
<glyph unicode="&#xe95c;" glyph-name="archive-2-line" d="M938.667 106.667v554.667l-85.333 170.667h-682.667l-85.333-170.817v-554.516c0-23.565 19.103-42.667 42.667-42.667h768c23.565 0 42.667 19.102 42.667 42.667zM170.667 576h682.667v-426.667h-682.667v426.667zM223.403 746.667h577.195l42.667-85.333h-662.485l42.624 85.333zM640 490.667h-256v-85.333h256v85.333z" />
<glyph unicode="&#xe95d;" glyph-name="archive-drawer-fill" d="M128 405.333h768v-341.44c0-23.505-18.982-42.56-42.385-42.56h-683.23c-23.409 0-42.385 19.042-42.385 42.56v341.44zM128 832.105c0 23.506 18.985 42.562 42.385 42.562h683.23c23.407 0 42.385-19.043 42.385-42.562v-341.438h-768v341.438zM384 746.667v-85.333h256v85.333h-256zM384 277.333v-85.333h256v85.333h-256z" />
<glyph unicode="&#xe95e;" glyph-name="archive-drawer-line" d="M128 832.35c0 23.371 18.985 42.317 42.385 42.317h683.23c23.407 0 42.385-19.427 42.385-42.317v-768.7c0-23.373-18.982-42.317-42.385-42.317h-683.23c-23.409 0-42.385 19.426-42.385 42.317v768.7zM810.667 490.667v298.667h-597.333v-298.667h597.333zM810.667 405.333h-597.333v-298.667h597.333v298.667zM384 704h256v-85.333h-256v85.333zM384 320h256v-85.333h-256v85.333z" />
<glyph unicode="&#xe95f;" glyph-name="archive-fill" d="M128 533.333h768v-426.854c0-23.462-18.982-42.479-42.385-42.479h-683.23c-23.409 0-42.385 18.978-42.385 42.479v426.854zM384 448v-85.333h256v85.333h-256zM85.333 789.341c0 23.56 19.427 42.659 42.317 42.659h768.7c23.373 0 42.317-18.932 42.317-42.659v-170.675h-853.333v170.675z" />
<glyph unicode="&#xe960;" glyph-name="archive-line" d="M128 533.333h-42.667v255.875c0 23.633 19.427 42.792 42.317 42.792h768.7c23.373 0 42.317-18.683 42.317-42.792v-255.875h-42.667v-426.731c0-23.531-18.982-42.603-42.385-42.603h-683.23c-23.409 0-42.385 19.093-42.385 42.603v426.731zM810.667 533.333h-597.333v-384h597.333v384zM170.667 746.667v-128h682.667v128h-682.667zM384 448h256v-85.333h-256v85.333z" />
<glyph unicode="&#xe961;" glyph-name="archive-stack-fill" d="M170.667 746.667h682.667v85.333h-682.667v-85.333zM853.333 576h-682.667v85.333h682.667v-85.333zM384 405.333h256v85.333h256v-384c0-23.565-19.102-42.667-42.667-42.667h-682.667c-23.564 0-42.667 19.102-42.667 42.667v384h256v-85.333z" />
<glyph unicode="&#xe962;" glyph-name="archive-stack-line" d="M170.667 746.667h682.667v85.333h-682.667v-85.333zM853.333 576h-682.667v85.333h682.667v-85.333zM128 490.667h298.667v-85.333h170.667v85.333h298.667v-384c0-23.565-19.102-42.667-42.667-42.667h-682.667c-23.564 0-42.667 19.102-42.667 42.667v384zM682.667 405.333v-85.333h-341.333v85.333h-128v-256h597.333v256h-128z" />
<glyph unicode="&#xe963;" glyph-name="armchair-fill" d="M682.667 832h-341.333c-94.257 0-170.667-76.41-170.667-170.667v-42.667c117.821 0 213.333-95.514 213.333-213.333h256c0 117.82 95.514 213.333 213.333 213.333v42.667c0 94.257-76.412 170.667-170.667 170.667zM853.333 533.333c-70.694 0-128-57.306-128-128v-128h-85.333v42.667h-256v-42.667h-85.333v128c0 70.694-57.308 128-128 128s-128-57.306-128-128c0-55.731 35.619-103.147 85.333-120.717v-220.617h85.333v42.667h597.333v-42.667h85.333v220.617c49.715 17.57 85.333 64.986 85.333 120.717 0 70.694-57.306 128-128 128z" />
<glyph unicode="&#xe964;" glyph-name="armchair-line" d="M341.333 832c-94.257 0-170.667-76.41-170.667-170.667v-90.71c-73.61-18.946-128-85.768-128-165.29 0-63.219 34.355-118.332 85.333-147.823v-193.51h85.333v42.667h597.333v-42.667h85.333v193.51c50.978 29.491 85.333 84.604 85.333 147.823 0 79.522-54.391 146.344-128 165.29v90.71c0 94.257-76.412 170.667-170.667 170.667h-341.333zM768 570.623c-73.609-18.946-128-85.768-128-165.29h-256c0 79.522-54.39 146.344-128 165.29v90.71c0 47.128 38.205 85.333 85.333 85.333h341.333c47.13 0 85.333-38.205 85.333-85.333v-90.71zM384 320h256v-42.667h85.333v128c0 47.13 38.204 85.333 85.333 85.333s85.333-38.204 85.333-85.333c0-37.090-23.684-68.753-56.883-80.491-17.050-6.025-28.45-22.144-28.45-40.226v-92.617h-597.333v92.617c0 18.082-11.399 34.202-28.448 40.226-33.201 11.738-56.885 43.401-56.885 80.491 0 47.13 38.205 85.333 85.333 85.333s85.333-38.204 85.333-85.333v-128h85.333v42.667z" />
<glyph unicode="&#xe965;" glyph-name="arrow-down-circle-fill" d="M512 874.667c235.52 0 426.667-191.147 426.667-426.667s-191.147-426.667-426.667-426.667c-235.52 0-426.667 191.147-426.667 426.667s191.147 426.667 426.667 426.667zM554.667 448v170.667h-85.333v-170.667h-128l170.667-170.667 170.667 170.667h-128z" />
<glyph unicode="&#xe966;" glyph-name="arrow-down-circle-line" d="M512 874.667c235.52 0 426.667-191.147 426.667-426.667s-191.147-426.667-426.667-426.667c-235.52 0-426.667 191.147-426.667 426.667s191.147 426.667 426.667 426.667zM512 106.667c188.587 0 341.333 152.747 341.333 341.333s-152.747 341.333-341.333 341.333c-188.587 0-341.333-152.747-341.333-341.333s152.747-341.333 341.333-341.333zM554.667 448h128l-170.667-170.667-170.667 170.667h128v170.667h85.333v-170.667z" />
<glyph unicode="&#xe967;" glyph-name="arrow-down-double-fill" d="M512 142.327l264.836 264.836-60.339 60.339-204.497-204.497-204.497 204.497-60.34-60.339 264.837-264.836zM512 383.39l264.836 264.835-60.339 60.34-204.497-204.497-204.497 204.497-60.34-60.34 264.837-264.835z" />
<glyph unicode="&#xe968;" glyph-name="arrow-down-double-line" d="M512 142.327l264.836 264.836-60.339 60.339-204.497-204.497-204.497 204.497-60.34-60.339 264.837-264.836zM512 383.39l264.836 264.835-60.339 60.34-204.497-204.497-204.497 204.497-60.34-60.34 264.837-264.835z" />
<glyph unicode="&#xe969;" glyph-name="arrow-down-fill" d="M554.667 448h298.667l-341.333-341.333-341.333 341.333h298.667v341.333h85.333v-341.333z" />
<glyph unicode="&#xe96a;" glyph-name="arrow-down-line" d="M554.671 270.012l228.864 228.864 60.339-60.339-331.87-331.87-331.869 331.87 60.34 60.339 228.862-228.864v519.322h85.333v-519.322z" />
<glyph unicode="&#xe96b;" glyph-name="arrow-down-s-fill" d="M512 277.333l-256 256h512l-256-256z" />
<glyph unicode="&#xe96c;" glyph-name="arrow-down-s-line" d="M511.996 398.020l211.191 211.188 60.339-60.34-271.531-271.531-271.527 271.531 60.34 60.34 211.187-211.188z" />
<glyph unicode="&#xe96d;" glyph-name="arrow-down-wide-fill" d="M512 293.056l382.63 202.569-39.927 75.418-342.703-181.432-342.704 181.432-39.927-75.418 382.63-202.569z" />
<glyph unicode="&#xe96e;" glyph-name="arrow-down-wide-line" d="M512 293.056l382.63 202.569-39.927 75.418-342.703-181.432-342.704 181.432-39.927-75.418 382.63-202.569z" />
<glyph unicode="&#xe96f;" glyph-name="arrow-drop-down-fill" d="M512 362.667l-170.667 170.667h341.333l-170.667-170.667z" />
<glyph unicode="&#xe970;" glyph-name="arrow-drop-down-line" d="M512 319.974l-181.021 181.018 60.34 60.341 120.681-120.681 120.678 120.681 60.339-60.341-181.018-181.018z" />
<glyph unicode="&#xe971;" glyph-name="arrow-drop-left-fill" d="M384 448l170.667 170.667v-341.333l-170.667 170.667z" />
<glyph unicode="&#xe972;" glyph-name="arrow-drop-left-line" d="M504.678 447.979l120.683-120.678-60.343-60.339-181.018 181.018 181.018 181.021 60.343-60.34-120.683-120.681z" />
<glyph unicode="&#xe973;" glyph-name="arrow-drop-right-fill" d="M597.333 448l-170.667-170.667v341.333l170.667-170.667z" />
<glyph unicode="&#xe974;" glyph-name="arrow-drop-right-line" d="M519.326 447.979l-120.68 120.681 60.341 60.34 181.018-181.021-181.018-181.018-60.341 60.339 120.68 120.678z" />
<glyph unicode="&#xe975;" glyph-name="arrow-drop-up-fill" d="M512 533.333l170.667-170.667h-341.333l170.667 170.667z" />
<glyph unicode="&#xe976;" glyph-name="arrow-drop-up-line" d="M512 455.322l-120.681-120.683-60.34 60.343 181.021 181.018 181.018-181.018-60.339-60.343-120.678 120.683z" />
<glyph unicode="&#xe977;" glyph-name="arrow-go-back-fill" d="M341.333 661.333v-170.667l-256 213.333 256 213.333v-170.667h213.333c188.514 0 341.333-152.82 341.333-341.333s-152.819-341.333-341.333-341.333h-384v85.333h384c141.385 0 256 114.615 256 256s-114.615 256-256 256h-213.333z" />
<glyph unicode="&#xe978;" glyph-name="arrow-go-back-line" d="M248.68 661.353l108.183-108.183-60.34-60.34-211.189 211.189 211.189 211.189 60.34-60.34-108.183-108.183h305.987c188.514 0 341.333-152.82 341.333-341.335 0-188.51-152.819-341.333-341.333-341.333h-384v85.333h384c141.385 0 256 114.615 256 256 0 141.387-114.615 256.002-256 256.002h-305.987z" />
<glyph unicode="&#xe979;" glyph-name="arrow-go-forward-fill" d="M682.667 661.333h-213.333c-141.385 0-256-114.615-256-256s114.615-256 256-256h384v-85.333h-384c-188.513 0-341.333 152.819-341.333 341.333s152.82 341.333 341.333 341.333h213.333v170.667l256-213.333-256-213.333v170.667z" />
<glyph unicode="&#xe97a;" glyph-name="arrow-go-forward-line" d="M775.322 661.353h-305.988c-141.385 0-256-114.615-256-256.002 0-141.385 114.615-256 256-256h384v-85.333h-384c-188.513 0-341.333 152.823-341.333 341.333 0 188.515 152.82 341.335 341.333 341.335h305.988l-108.186 108.183 60.343 60.34 211.187-211.189-211.187-211.189-60.343 60.34 108.186 108.183z" />
<glyph unicode="&#xe97b;" glyph-name="arrow-left-circle-fill" d="M512 874.667c235.52 0 426.667-191.147 426.667-426.667s-191.147-426.667-426.667-426.667c-235.52 0-426.667 191.147-426.667 426.667s191.147 426.667 426.667 426.667zM512 490.667v128l-170.667-170.667 170.667-170.667v128h170.667v85.333h-170.667z" />
<glyph unicode="&#xe97c;" glyph-name="arrow-left-circle-line" d="M512 874.667c235.52 0 426.667-191.147 426.667-426.667s-191.147-426.667-426.667-426.667c-235.52 0-426.667 191.147-426.667 426.667s191.147 426.667 426.667 426.667zM512 106.667c188.587 0 341.333 152.747 341.333 341.333s-152.747 341.333-341.333 341.333c-188.587 0-341.333-152.747-341.333-341.333s152.747-341.333 341.333-341.333zM512 490.667h170.667v-85.333h-170.667v-128l-170.667 170.667 170.667 170.667v-128z" />
<glyph unicode="&#xe97d;" glyph-name="arrow-left-double-fill" d="M206.327 448l264.837-264.836 60.339 60.339-204.497 204.497 204.497 204.496-60.339 60.34-264.837-264.836zM447.39 448l264.836-264.836 60.339 60.339-204.497 204.497 204.497 204.496-60.339 60.34-264.836-264.836z" />
<glyph unicode="&#xe97e;" glyph-name="arrow-left-double-line" d="M206.327 448l264.837-264.836 60.339 60.339-204.497 204.497 204.497 204.496-60.339 60.34-264.837-264.836zM447.39 448l264.836-264.836 60.339 60.339-204.497 204.497 204.497 204.496-60.339 60.34-264.836-264.836z" />
<glyph unicode="&#xe97f;" glyph-name="arrow-left-down-fill" d="M527.394 403.136l211.187-211.191h-482.717v482.719l211.19-211.188 241.357 241.358 60.339-60.34-241.357-241.358z" />
<glyph unicode="&#xe980;" glyph-name="arrow-left-down-line" d="M384 380.203l367.215 367.214 60.339-60.34-367.215-367.213h323.661v-85.333h-469.333v469.332h85.333v-323.659z" />
<glyph unicode="&#xe981;" glyph-name="arrow-left-fill" d="M512 405.333v-298.667l-341.333 341.333 341.333 341.333v-298.667h341.333v-85.333h-341.333z" />
<glyph unicode="&#xe982;" glyph-name="arrow-left-line" d="M334.013 490.671h519.32v-85.333h-519.32l228.863-228.86-60.339-60.339-331.87 331.866 331.87 331.871 60.339-60.34-228.863-228.864z" />
<glyph unicode="&#xe983;" glyph-name="arrow-left-right-fill" d="M682.667 277.333v170.667l213.333-213.333-213.333-213.333v170.667h-512v85.333h512zM341.333 874.667v-170.624l512-0.043v-85.333h-512v-170.667l-213.333 213.333 213.333 213.333z" />
<glyph unicode="&#xe984;" glyph-name="arrow-left-right-line" d="M684.813 445.875l211.187-211.191-211.187-211.187-60.343 60.339 108.203 108.215-562.005-0.034v85.333l562.005 0.034-108.203 108.151 60.343 60.339zM339.189 872.542l60.34-60.34-108.201-108.151 562.005-0.032v-85.333l-562.005 0.032 108.201-108.215-60.34-60.339-211.189 211.189 211.189 211.189z" />
<glyph unicode="&#xe985;" glyph-name="arrow-left-s-fill" d="M341.333 448l256 256v-512l-256 256z" />
<glyph unicode="&#xe986;" glyph-name="arrow-left-s-line" d="M462.012 447.97l211.191-211.187-60.339-60.339-271.531 271.526 271.531 271.53 60.339-60.34-211.191-211.19z" />
<glyph unicode="&#xe987;" glyph-name="arrow-left-up-fill" d="M527.394 492.937l241.357-241.361-60.339-60.339-241.357 241.361-211.19-211.191v482.719h482.717l-211.187-211.188z" />
<glyph unicode="&#xe988;" glyph-name="arrow-left-up-line" d="M401.673 618.667l367.215-367.215-60.339-60.339-367.215 367.215v-323.66h-85.333v469.333h469.333v-85.333h-323.66z" />
<glyph unicode="&#xe989;" glyph-name="arrow-left-wide-fill" d="M357.057 448l202.567 382.63 75.418-39.927-181.431-342.703 181.431-342.703-75.418-39.927-202.567 382.63z" />
<glyph unicode="&#xe98a;" glyph-name="arrow-left-wide-line" d="M357.057 448l202.567 382.63 75.418-39.927-181.431-342.703 181.431-342.703-75.418-39.927-202.567 382.63z" />
<glyph unicode="&#xe98b;" glyph-name="arrow-right-circle-fill" d="M512 874.667c235.52 0 426.667-191.147 426.667-426.667s-191.147-426.667-426.667-426.667c-235.52 0-426.667 191.147-426.667 426.667s191.147 426.667 426.667 426.667zM512 490.667h-170.667v-85.333h170.667v-128l170.667 170.667-170.667 170.667v-128z" />
<glyph unicode="&#xe98c;" glyph-name="arrow-right-circle-line" d="M512 490.667v128l170.667-170.667-170.667-170.667v128h-170.667v85.333h170.667zM512 874.667c235.52 0 426.667-191.147 426.667-426.667s-191.147-426.667-426.667-426.667c-235.52 0-426.667 191.147-426.667 426.667s191.147 426.667 426.667 426.667zM512 106.667c188.587 0 341.333 152.747 341.333 341.333s-152.747 341.333-341.333 341.333c-188.587 0-341.333-152.747-341.333-341.333s152.747-341.333 341.333-341.333z" />
<glyph unicode="&#xe98d;" glyph-name="arrow-right-double-fill" d="M817.673 448l-264.836 264.836-60.339-60.34 204.497-204.496-204.497-204.497 60.339-60.339 264.836 264.836zM576.61 448l-264.835 264.836-60.34-60.34 204.497-204.496-204.497-204.497 60.34-60.339 264.835 264.836z" />
<glyph unicode="&#xe98e;" glyph-name="arrow-right-double-line" d="M817.673 448l-264.836 264.836-60.339-60.34 204.497-204.496-204.497-204.497 60.339-60.339 264.836 264.836zM576.61 448l-264.835 264.836-60.34-60.34 204.497-204.496-204.497-204.497 60.34-60.339 264.835 264.836z" />
<glyph unicode="&#xe98f;" glyph-name="arrow-right-down-fill" d="M496.495 403.136l-241.359 241.358 60.34 60.34 241.359-241.358 211.191 211.188v-482.719h-482.72l211.19 211.191z" />
<glyph unicode="&#xe990;" glyph-name="arrow-right-down-line" d="M622.485 277.197l-367.215 367.213 60.34 60.34 367.214-367.214v323.659h85.333v-469.332h-469.332v85.333h323.66z" />
<glyph unicode="&#xe991;" glyph-name="arrow-right-fill" d="M512 405.333h-341.333v85.333h341.333v298.667l341.333-341.333-341.333-341.333v298.667z" />
<glyph unicode="&#xe992;" glyph-name="arrow-right-line" d="M689.988 490.671l-228.864 228.864 60.339 60.34 331.87-331.871-331.87-331.866-60.339 60.339 228.864 228.86h-519.322v85.333h519.322z" />
<glyph unicode="&#xe993;" glyph-name="arrow-right-s-fill" d="M682.667 448l-256-256v512l256-256z" />
<glyph unicode="&#xe994;" glyph-name="arrow-right-s-line" d="M561.993 447.97l-211.191 211.19 60.34 60.34 271.529-271.53-271.529-271.526-60.34 60.339 211.191 211.187z" />
<glyph unicode="&#xe995;" glyph-name="arrow-right-up-fill" d="M556.834 432.597l-241.359-241.361-60.34 60.339 241.359 241.361-211.19 211.188h482.72v-482.719l-211.191 211.191z" />
<glyph unicode="&#xe996;" glyph-name="arrow-right-up-line" d="M682.825 558.327l-367.214-367.215-60.34 60.339 367.215 367.215h-323.66v85.333h469.332v-469.333h-85.333v323.66z" />
<glyph unicode="&#xe997;" glyph-name="arrow-right-wide-fill" d="M666.944 448l-202.569 382.63-75.417-39.927 181.431-342.703-181.431-342.703 75.417-39.927 202.569 382.63z" />
<glyph unicode="&#xe998;" glyph-name="arrow-right-wide-line" d="M666.944 448l-202.569 382.63-75.417-39.927 181.431-342.703-181.431-342.703 75.417-39.927 202.569 382.63z" />
<glyph unicode="&#xe999;" glyph-name="arrow-turn-back-fill" d="M725.333 277.333h-170.667l213.333-256 213.333 256h-170.667v213.333c0 188.513-152.819 341.333-341.333 341.333s-341.333-152.82-341.333-341.333v-384h85.333v384c0 141.385 114.615 256 256 256s256-114.615 256-256v-213.333z" />
<glyph unicode="&#xe99a;" glyph-name="arrow-turn-back-line" d="M725.35 184.678l-108.181 108.186-60.339-60.343 211.187-211.187 211.191 211.187-60.339 60.343-108.186-108.186v305.988c0 188.513-152.819 341.333-341.333 341.333-188.512 0-341.332-152.82-341.332-341.333v-384h85.333v384c0 141.385 114.615 256 255.998 256 141.389 0 256-114.615 256-256v-305.988z" />
<glyph unicode="&#xe99b;" glyph-name="arrow-turn-forward-fill" d="M725.333 618.667v-213.333c0-141.385-114.615-256-256-256s-256 114.615-256 256v384h-85.333v-384c0-188.514 152.82-341.333 341.333-341.333s341.333 152.819 341.333 341.333v213.333h170.667l-213.333 256-213.333-256h170.667z" />
<glyph unicode="&#xe99c;" glyph-name="arrow-turn-forward-line" d="M725.355 711.32v-305.987c0-141.385-114.615-256-256-256-141.387 0-256.002 114.615-256.002 256v384h-85.333v-384c0-188.514 152.82-341.333 341.335-341.333 188.51 0 341.333 152.819 341.333 341.333v305.987l108.181-108.183 60.339 60.34-211.187 211.189-211.191-211.189 60.339-60.34 108.186 108.183z" />
<glyph unicode="&#xe99d;" glyph-name="arrow-up-circle-fill" d="M512 874.667c235.52 0 426.667-191.147 426.667-426.667s-191.147-426.667-426.667-426.667c-235.52 0-426.667 191.147-426.667 426.667s191.147 426.667 426.667 426.667zM554.667 448h128l-170.667 170.667-170.667-170.667h128v-170.667h85.333v170.667z" />
<glyph unicode="&#xe99e;" glyph-name="arrow-up-circle-line" d="M512 874.667c235.52 0 426.667-191.147 426.667-426.667s-191.147-426.667-426.667-426.667c-235.52 0-426.667 191.147-426.667 426.667s191.147 426.667 426.667 426.667zM512 106.667c188.587 0 341.333 152.747 341.333 341.333s-152.747 341.333-341.333 341.333c-188.587 0-341.333-152.747-341.333-341.333s152.747-341.333 341.333-341.333zM554.667 448v-170.667h-85.333v170.667h-128l170.667 170.667 170.667-170.667h-128z" />
<glyph unicode="&#xe99f;" glyph-name="arrow-up-double-fill" d="M512 753.672l-264.836-264.835 60.34-60.339 204.496 204.495 204.497-204.495 60.339 60.339-264.836 264.835zM512 512.61l-264.836-264.836 60.34-60.339 204.496 204.497 204.497-204.497 60.339 60.339-264.836 264.836z" />
<glyph unicode="&#xe9a0;" glyph-name="arrow-up-double-line" d="M512 753.672l-264.836-264.835 60.34-60.339 204.496 204.495 204.497-204.495 60.339 60.339-264.836 264.835zM512 512.61l-264.836-264.836 60.34-60.339 204.496 204.497 204.497-204.497 60.339 60.339-264.836 264.836z" />
<glyph unicode="&#xe9a1;" glyph-name="arrow-up-down-fill" d="M512 618.667h-170.624l-0.043-512h-85.333v512h-170.667l213.333 213.333 213.333-213.333zM938.667 277.333l-213.333-213.333-213.333 213.333h170.667v512h85.333v-512h170.667z" />
<glyph unicode="&#xe9a2;" glyph-name="arrow-up-down-line" d="M509.858 620.811l-60.339-60.34-108.152 108.201-0.032-562.005h-85.333l0.032 562.005-108.215-108.201-60.34 60.34 211.189 211.189 211.19-211.189zM936.525 275.187l-211.191-211.187-211.187 211.187 60.339 60.343 108.215-108.203-0.034 562.005h85.333l0.034-562.005 108.151 108.203 60.339-60.343z" />
<glyph unicode="&#xe9a3;" glyph-name="arrow-up-fill" d="M554.667 448v-341.333h-85.333v341.333h-298.667l341.333 341.333 341.333-341.333h-298.667z" />
<glyph unicode="&#xe9a4;" glyph-name="arrow-up-line" d="M554.671 625.987v-519.32h-85.333v519.32l-228.862-228.863-60.34 60.339 331.869 331.87 331.87-331.87-60.339-60.339-228.864 228.863z" />
<glyph unicode="&#xe9a5;" glyph-name="arrow-up-s-fill" d="M512 618.667l256-256h-512l256 256z" />
<glyph unicode="&#xe9a6;" glyph-name="arrow-up-s-line" d="M511.996 497.988l-211.187-211.191-60.34 60.339 271.527 271.531 271.531-271.531-60.339-60.339-211.191 211.191z" />
<glyph unicode="&#xe9a7;" glyph-name="arrow-up-wide-fill" d="M512 602.943l382.63-202.567-39.927-75.418-342.703 181.431-342.704-181.431-39.927 75.418 382.63 202.567z" />
<glyph unicode="&#xe9a8;" glyph-name="arrow-up-wide-line" d="M512 602.943l382.63-202.567-39.927-75.418-342.703 181.431-342.704-181.431-39.927 75.418 382.63 202.567z" />
<glyph unicode="&#xe9a9;" glyph-name="artboard-2-fill" d="M256 704h512v-512h-512v512zM256 874.667h85.333v-128h-85.333v128zM256 149.333h85.333v-128h-85.333v128zM85.333 704h128v-85.333h-128v85.333zM85.333 277.333h128v-85.333h-128v85.333zM810.667 704h128v-85.333h-128v85.333zM810.667 277.333h128v-85.333h-128v85.333zM682.667 874.667h85.333v-128h-85.333v128zM682.667 149.333h85.333v-128h-85.333v128z" />
<glyph unicode="&#xe9aa;" glyph-name="artboard-2-line" d="M341.333 618.667v-341.333h341.333v341.333h-341.333zM256 704h512v-512h-512v512zM256 874.667h85.333v-128h-85.333v128zM256 149.333h85.333v-128h-85.333v128zM85.333 704h128v-85.333h-128v85.333zM85.333 277.333h128v-85.333h-128v85.333zM810.667 704h128v-85.333h-128v85.333zM810.667 277.333h128v-85.333h-128v85.333zM682.667 874.667h85.333v-128h-85.333v128zM682.667 149.333h85.333v-128h-85.333v128z" />
<glyph unicode="&#xe9ab;" glyph-name="artboard-fill" d="M366.327 234.667h-238.327v85.333h768v-85.333h-238.327l138.355-138.351-60.343-60.343-181.018 181.022v-110.327h-85.333v110.327l-181.019-181.022-60.34 60.343 138.353 138.351zM213.333 832h597.333c23.565 0 42.667-19.103 42.667-42.667v-426.667h-682.667v426.667c0 23.564 19.103 42.667 42.667 42.667z" />
<glyph unicode="&#xe9ac;" glyph-name="artboard-line" d="M366.327 234.667h-238.327v85.333h768v-85.333h-238.327l138.355-138.351-60.343-60.343-181.018 181.022v-110.327h-85.333v110.327l-181.019-181.022-60.34 60.343 138.353 138.351zM213.333 832h597.333c23.565 0 42.667-19.103 42.667-42.667v-426.667h-682.667v426.667c0 23.564 19.103 42.667 42.667 42.667zM256 746.667v-298.667h512v298.667h-512z" />
<glyph unicode="&#xe9ad;" glyph-name="article-fill" d="M853.333 21.333h-682.667c-23.564 0-42.667 19.102-42.667 42.667v768c0 23.564 19.103 42.667 42.667 42.667h682.667c23.565 0 42.667-19.103 42.667-42.667v-768c0-23.565-19.102-42.667-42.667-42.667zM298.667 704v-170.667h170.667v170.667h-170.667zM298.667 448v-85.333h426.667v85.333h-426.667zM298.667 277.333v-85.333h426.667v85.333h-426.667zM554.667 661.333v-85.333h170.667v85.333h-170.667z" />
<glyph unicode="&#xe9ae;" glyph-name="article-line" d="M853.333 21.333h-682.667c-23.564 0-42.667 19.102-42.667 42.667v768c0 23.564 19.103 42.667 42.667 42.667h682.667c23.565 0 42.667-19.103 42.667-42.667v-768c0-23.565-19.102-42.667-42.667-42.667zM810.667 106.667v682.667h-597.333v-682.667h597.333zM298.667 704h170.667v-170.667h-170.667v170.667zM298.667 448h426.667v-85.333h-426.667v85.333zM298.667 277.333h426.667v-85.333h-426.667v85.333zM554.667 661.333h170.667v-85.333h-170.667v85.333z" />
<glyph unicode="&#xe9af;" glyph-name="aspect-ratio-fill" d="M896 832c23.565 0 42.667-19.103 42.667-42.667v-682.667c0-23.565-19.102-42.667-42.667-42.667h-768c-23.564 0-42.667 19.102-42.667 42.667v682.667c0 23.564 19.103 42.667 42.667 42.667h768zM768 448h-85.333v-128h-128v-85.333h213.333v213.333zM469.333 661.333h-213.333v-213.333h85.333v128h128v85.333z" />
<glyph unicode="&#xe9b0;" glyph-name="aspect-ratio-line" d="M896 832c23.565 0 42.667-19.103 42.667-42.667v-682.667c0-23.565-19.102-42.667-42.667-42.667h-768c-23.564 0-42.667 19.102-42.667 42.667v682.667c0 23.564 19.103 42.667 42.667 42.667h768zM853.333 746.667h-682.667v-597.333h682.667v597.333zM554.667 234.667v85.333h128v128h85.333v-213.333h-213.333zM469.333 661.333v-85.333h-128v-128h-85.333v213.333h213.333z" />
<glyph unicode="&#xe9b1;" glyph-name="asterisk" d="M554.658 832l-0.009-310.059 268.561 155.009 42.667-73.901-268.518-155.007 268.518-155.093-42.667-73.899-268.561 155.051 0.009-310.101h-85.333l-0.009 310.101-268.545-155.051-42.667 73.899 268.501 155.051-268.501 155.050 42.667 73.901 268.545-155.009 0.009 310.059h85.333z" />
<glyph unicode="&#xe9b2;" glyph-name="at-fill" d="M512 21.333c-235.642 0-426.667 191.027-426.667 426.667 0 235.642 191.025 426.667 426.667 426.667 235.639 0 426.667-191.025 426.667-426.667 0-235.639-191.027-426.667-426.667-426.667zM853.333 448c0 188.513-152.819 341.333-341.333 341.333s-341.333-152.82-341.333-341.333c0-188.514 152.82-341.333 341.333-341.333 62.729 0 121.506 16.922 172.015 46.447l-43.004 73.724c-37.879-22.148-81.963-34.837-129.011-34.837-141.385 0-256 114.615-256 256s114.615 256 256 256c141.385 0 256-114.615 256-256v-42.667c0-23.565-19.102-42.667-42.667-42.667s-42.667 19.102-42.667 42.667v170.667h-57.779c-30.084 26.554-69.606 42.667-112.887 42.667-94.257 0-170.667-76.41-170.667-170.667 0-94.255 76.41-170.667 170.667-170.667 44.651 0 85.295 17.143 115.708 45.21 23.479-27.657 58.505-45.21 97.626-45.21 70.694 0 128 57.306 128 128v42.667zM512 533.333c47.13 0 85.333-38.204 85.333-85.333s-38.204-85.333-85.333-85.333c-47.13 0-85.333 38.204-85.333 85.333s38.204 85.333 85.333 85.333z" />
<glyph unicode="&#xe9b3;" glyph-name="at-line" d="M853.333 448c0 188.513-152.819 341.333-341.333 341.333s-341.333-152.82-341.333-341.333c0-188.514 152.82-341.333 341.333-341.333 70.050 0 135.172 21.103 189.359 57.297l47.339-71.010c-67.729-45.244-149.133-71.62-236.698-71.62-235.642 0-426.667 191.027-426.667 426.667 0 235.642 191.025 426.667 426.667 426.667 235.639 0 426.667-191.025 426.667-426.667v-64c0-82.475-66.859-149.333-149.333-149.333-51.379 0-96.7 25.95-123.571 65.455-38.81-40.346-93.355-65.455-153.762-65.455-117.821 0-213.333 95.514-213.333 213.333s95.513 213.333 213.333 213.333c48.034 0 92.361-15.876 128.021-42.667h85.312v-234.667c0-35.345 28.655-64 64-64s64 28.655 64 64v64zM512 576c-70.694 0-128-57.306-128-128s57.306-128 128-128c70.694 0 128 57.306 128 128s-57.306 128-128 128z" />
<glyph unicode="&#xe9b4;" glyph-name="attachment-2" d="M632.691 629.019l-241.361-241.358c-16.663-16.661-16.663-43.678 0-60.339 16.662-16.666 43.678-16.666 60.339 0l241.361 241.358c49.984 49.987 49.984 131.032 0 181.019-49.988 49.987-131.034 49.987-181.022 0l-241.358-241.359c-83.312-83.311-83.312-218.385 0-301.7 83.312-83.311 218.386-83.311 301.697 0l241.361 241.361 60.339-60.339-241.357-241.361c-116.638-116.634-305.744-116.634-422.38 0-116.637 116.638-116.637 305.741 0 422.38l241.359 241.359c83.311 83.312 218.389 83.312 301.7 0s83.311-218.387 0-301.699l-241.361-241.361c-49.984-49.984-131.031-49.984-181.018 0-49.987 49.988-49.987 131.034 0 181.022l241.357 241.359 60.343-60.34z" />
<glyph unicode="&#xe9b5;" glyph-name="attachment-fill" d="M895.872 832.35l0.119-768.7c0-22.891-18.97-42.317-42.377-42.317h-683.23c-23.401 0-42.385 18.944-42.385 42.317v768.7c0 22.89 18.973 42.317 42.377 42.317h683.11c23.394 0 42.381-18.946 42.385-42.317zM384 405.333v170.667c0 23.564 19.103 42.667 42.667 42.667s42.667-19.103 42.667-42.667v-170.667c0-23.565 19.102-42.667 42.667-42.667s42.667 19.102 42.667 42.667v170.667c0 70.692-57.306 128-128 128-70.692 0-128-57.308-128-128v-170.667c0-117.82 95.513-213.333 213.333-213.333s213.333 95.514 213.333 213.333v213.333h-85.333v-213.333c0-70.694-57.306-128-128-128s-128 57.306-128 128z" />
<glyph unicode="&#xe9b6;" glyph-name="attachment-line" d="M597.333 384v234.667c0 94.257-76.412 170.667-170.667 170.667-94.257 0-170.667-76.41-170.667-170.667v-234.667c0-153.169 124.166-277.333 277.333-277.333 153.169 0 277.333 124.164 277.333 277.333v405.333h85.333v-405.333c0-200.294-162.372-362.667-362.667-362.667s-362.667 162.372-362.667 362.667v234.667c0 141.385 114.615 256 256 256s256-114.615 256-256v-234.667c0-82.475-66.859-149.333-149.333-149.333s-149.333 66.859-149.333 149.333v234.667h85.333v-234.667c0-35.345 28.655-64 64-64s64 28.655 64 64z" />
<glyph unicode="&#xe9b7;" glyph-name="auction-fill" d="M597.542 106.547v-85.333h-512.001v85.333h512.001zM622.537 930.599l331.866-331.869-60.339-60.34-45.252 15.085-105.596-105.595 241.361-241.361-60.343-60.339-241.357 241.361-102.579-102.579 12.070-48.269-60.343-60.343-331.867 331.87 60.34 60.34 48.272-12.068 268.512 268.512-15.083 45.255 60.339 60.34z" />
<glyph unicode="&#xe9b8;" glyph-name="auction-line" d="M597.542 106.547v-85.333h-512.001v85.333h512.001zM622.537 930.599l331.866-331.869-60.339-60.34-45.252 15.085-105.596-105.595 241.361-241.361-60.343-60.339-241.357 241.361-102.579-102.579 12.070-48.269-60.343-60.343-331.867 331.87 60.34 60.34 48.272-12.068 268.512 268.512-15.083 45.255 60.339 60.34zM652.706 779.75l-301.7-301.699 150.848-150.848 301.7 301.698-150.848 150.849z" />
<glyph unicode="&#xe9b9;" glyph-name="award-fill" d="M725.333 309.53v-293.184c0-11.78-9.553-21.338-21.333-21.338-3.866 0-7.659 1.054-10.974 3.042l-181.026 108.617-181.024-108.617c-10.103-6.059-23.207-2.782-29.269 7.317-1.989 3.319-3.040 7.113-3.040 10.978v293.184c-78.034 62.554-128 158.677-128 266.47 0 188.513 152.82 341.333 341.333 341.333s341.333-152.82 341.333-341.333c0-107.793-49.967-203.917-128-266.47zM512 320c141.385 0 256 114.615 256 256s-114.615 256-256 256c-141.385 0-256-114.615-256-256s114.615-256 256-256zM512 405.333c-94.257 0-170.667 76.412-170.667 170.667 0 94.257 76.41 170.667 170.667 170.667 94.255 0 170.667-76.41 170.667-170.667 0-94.255-76.412-170.667-170.667-170.667z" />
<glyph unicode="&#xe9ba;" glyph-name="award-line" d="M725.333 309.53v-293.184c0-11.78-9.553-21.338-21.333-21.338-3.866 0-7.659 1.054-10.974 3.042l-181.026 108.617-181.024-108.617c-10.103-6.059-23.207-2.782-29.269 7.317-1.989 3.319-3.040 7.113-3.040 10.978v293.184c-78.034 62.554-128 158.677-128 266.47 0 188.513 152.82 341.333 341.333 341.333s341.333-152.82 341.333-341.333c0-107.793-49.967-203.917-128-266.47zM384 259.477v-130.095l128 76.8 128-76.8v130.095c-39.526-16-82.735-24.811-128-24.811s-88.472 8.811-128 24.811zM512 320c141.385 0 256 114.615 256 256s-114.615 256-256 256c-141.385 0-256-114.615-256-256s114.615-256 256-256z" />
<glyph unicode="&#xe9bb;" glyph-name="baidu-fill" d="M252.858 426.816c88.015 18.901 76.023 124.083 73.389 147.072-4.311 35.442-45.997 97.391-102.604 92.491-71.234-6.392-81.641-109.291-81.641-109.291-9.634-47.563 23.063-149.191 110.857-130.272zM346.326 243.861c-2.579-7.39-8.326-26.308-3.353-42.773 9.818-36.954 41.889-38.613 41.889-38.613h46.088v112.666h-49.349c-22.179-6.613-32.881-23.876-35.276-31.279zM416.215 603.196c48.613 0 87.905 55.944 87.905 125.114 0 69.097-39.292 125.023-87.905 125.023-48.539 0-87.923-55.926-87.923-125.023 0-69.17 39.403-125.114 87.923-125.114zM625.587 594.925c64.969-8.437 106.748 60.899 115.055 113.454 8.474 52.481-33.451 113.436-79.45 123.917-46.089 10.574-103.633-63.257-108.885-111.391-6.263-58.836 8.418-117.636 73.28-125.98zM625.566 447.834c-79.539 123.936-192.533 73.502-230.333 10.462-37.634-63.014-96.286-102.878-104.612-113.434-8.455-10.389-121.431-71.381-96.341-182.771 25.071-111.317 113.16-109.201 113.16-109.201s64.915-6.391 140.219 10.462c75.341 16.708 140.203-4.16 140.203-4.16s175.974-58.931 224.128 54.507c48.094 113.472-27.209 172.309-27.209 172.309s-100.523 77.773-159.215 161.826zM369.278 117.18c-49.405 9.856-69.079 43.567-71.565 49.314-2.432 5.837-16.468 32.934-9.045 79.040 21.35 69.082 82.231 74.035 82.231 74.035h60.9v74.863l51.874-0.794v-276.459h-114.395zM565.111 117.973c-51.025 13.15-53.402 49.404-53.402 49.404v145.579l53.402 0.866v-130.842c3.26-13.965 20.595-16.486 20.595-16.486h54.246v146.462h56.811v-194.982h-131.652zM883.127 506.671c0 25.143-20.89 100.854-98.347 100.854-77.589 0-87.962-71.455-87.962-121.966 0-48.205 4.070-115.499 100.45-113.361 96.414 2.138 85.858 109.197 85.858 134.473z" />
<glyph unicode="&#xe9bc;" glyph-name="baidu-line" d="M322.701 137.395c7.256-0.333 15.639-0.461 24.916-0.277 26.689 0.529 54.47 3.482 81.567 9.545 43.204 9.583 86.106 10.594 127.168 5.581 23.334-2.85 42.035-7.044 54.955-10.978 45.982-11.721 111.407-9.506 128.239 17.532 12.403 19.921 10.773 33.562-1.109 51.11-2.581 3.814-5.385 7.245-8.047 10.061-0.375 0.401-0.721 0.751-1.024 1.058-2.829 2.249-4.386 3.499-7.010 5.628-7.501 6.097-15.799 13.035-24.7 20.727-25.404 21.952-50.82 45.756-74.778 70.801-25.847 27.012-48.542 53.969-67.277 80.798l-1.527 2.266c-31.659 48.585-66.479 45.517-85.436 13.538-12.023-20.288-25.668-39.147-40.734-56.832-17.513-20.561-35.421-37.956-55.702-55.305-5.245-4.489-21.445-17.929-17.569-14.69-0.157-0.132-0.72-0.644 2.173 3.042-4.192-5.15-40.536-37.449-51.238-49.579-21.952-24.879-30.79-46.11-27.5-63.177 3.089-16.017 9.343-25.024 19.212-31.757 5.018-3.422 10.818-6.054 16.589-7.795 1.475-0.444 2.781-0.781 3.857-1.015 1.422-0.098 3.085-0.192 4.974-0.282zM625.566 447.834c58.692-84.053 159.215-161.826 159.215-161.826s88.047-74.581 27.209-172.309c-60.843-97.728-224.128-54.507-224.128-54.507s-64.862 20.868-140.203 4.16c-75.304-16.853-140.219-10.462-140.219-10.462s-94.121 10.462-113.16 109.201c-19.039 98.735 87.886 172.382 96.341 182.771 8.326 10.556 64.509 45.786 104.612 113.434 40.103 67.652 152.91 108.357 230.333-10.462zM861.875 508.39c0-19.494 8.141-102.084-66.236-103.731-74.347-1.647-77.487 50.261-77.487 87.45 0 38.963 8 94.083 67.853 94.083 59.755 0 75.87-58.405 75.87-77.801zM630.234 626.915c-50.351 6.478-61.751 52.126-56.887 97.802 4.075 37.367 48.751 94.684 84.531 86.476 35.708-8.137 68.258-55.458 61.679-96.2-6.451-40.8-38.882-94.627-89.323-88.077zM416.212 642.562c-36.747 0-66.588 42.368-66.588 94.754 0 52.329 29.827 94.684 66.588 94.684 36.818 0 66.574-42.355 66.574-94.684 0-52.386-29.756-94.754-66.574-94.754zM254.373 447.74c-72.326-15.586-99.261 68.139-91.325 107.32 0 0 8.574 84.769 67.256 90.035 46.634 4.036 80.975-46.998 84.526-76.195 2.17-18.939 12.049-105.591-60.458-121.16z" />
<glyph unicode="&#xe9bd;" glyph-name="ball-pen-fill" d="M761.566 456.32l-30.17 30.17-422.377-422.379h-181.019v181.022l482.718 482.717 241.361-241.361c16.661-16.661 16.661-43.678 0-60.339l-301.7-301.696-60.339 60.339 271.526 271.526zM791.735 848.53l120.683-120.68c16.661-16.662 16.661-43.677 0-60.34l-60.339-60.34-181.022 181.019 60.339 60.34c16.666 16.662 43.678 16.662 60.339 0z" />
<glyph unicode="&#xe9be;" glyph-name="ball-pen-line" d="M761.566 460.873l-30.17 30.17-422.377-422.379h-181.019v181.022l482.718 482.717 241.361-241.36c16.661-16.661 16.661-43.678 0-60.339l-301.7-301.7-60.339 60.343 271.526 271.526zM671.057 551.383l-60.339 60.34-397.385-397.387v-60.339h60.34l397.384 397.386zM791.735 853.082l120.683-120.68c16.661-16.662 16.661-43.677 0-60.34l-60.339-60.34-181.022 181.019 60.339 60.34c16.666 16.662 43.678 16.662 60.339 0z" />
<glyph unicode="&#xe9bf;" glyph-name="bank-card-2-fill" d="M938.876 490.675v-384c0-23.565-19.102-42.667-42.667-42.667h-768.001c-23.564 0-42.667 19.102-42.667 42.667v384h853.334zM938.876 661.342h-853.334v128c0 23.564 19.103 42.667 42.667 42.667h768.001c23.565 0 42.667-19.102 42.667-42.667v-128z" />
<glyph unicode="&#xe9c0;" glyph-name="bank-card-2-line" d="M128.208 832.009h768.001c23.565 0 42.667-19.102 42.667-42.667v-682.667c0-23.565-19.102-42.667-42.667-42.667h-768.001c-23.564 0-42.667 19.102-42.667 42.667v682.667c0 23.564 19.103 42.667 42.667 42.667zM853.542 448.009h-682.668v-298.667h682.668v298.667zM853.542 618.676v128h-682.668v-128h682.668z" />
<glyph unicode="&#xe9c1;" glyph-name="bank-card-fill" d="M938.876 533.342v-426.667c0-23.565-19.102-42.667-42.667-42.667h-768.001c-23.564 0-42.667 19.102-42.667 42.667v426.667h853.334zM938.876 618.676h-853.334v170.667c0 23.564 19.103 42.667 42.667 42.667h768.001c23.565 0 42.667-19.102 42.667-42.667v-170.667zM640.209 277.342v-85.333h170.667v85.333h-170.667z" />
<glyph unicode="&#xe9c2;" glyph-name="bank-card-line" d="M128.208 832.009h768.001c23.565 0 42.667-19.102 42.667-42.667v-682.667c0-23.565-19.102-42.667-42.667-42.667h-768.001c-23.564 0-42.667 19.102-42.667 42.667v682.667c0 23.564 19.103 42.667 42.667 42.667zM853.542 490.675h-682.668v-341.333h682.668v341.333zM853.542 576.009v170.667h-682.668v-170.667h682.668zM597.542 320.009h170.667v-85.333h-170.667v85.333z" />
<glyph unicode="&#xe9c3;" glyph-name="bank-fill" d="M85.333 106.667h853.333v-85.333h-853.333v85.333zM170.667 448h85.333v-298.667h-85.333v298.667zM384 448h85.333v-298.667h-85.333v298.667zM554.667 448h85.333v-298.667h-85.333v298.667zM768 448h85.333v-298.667h-85.333v298.667zM85.333 661.333l426.667 213.333 426.667-213.333v-170.667h-853.333v170.667zM512 618.667c23.565 0 42.667 19.103 42.667 42.667s-19.102 42.667-42.667 42.667c-23.565 0-42.667-19.103-42.667-42.667s19.102-42.667 42.667-42.667z" />
<glyph unicode="&#xe9c4;" glyph-name="bank-line" d="M85.333 106.667h853.333v-85.333h-853.333v85.333zM170.667 448h85.333v-298.667h-85.333v298.667zM384 448h85.333v-298.667h-85.333v298.667zM554.667 448h85.333v-298.667h-85.333v298.667zM768 448h85.333v-298.667h-85.333v298.667zM85.333 661.333l426.667 213.333 426.667-213.333v-170.667h-853.333v170.667zM170.667 608.594v-32.594h682.667v32.594l-341.333 170.667-341.333-170.667zM512 618.667c-23.565 0-42.667 19.103-42.667 42.667s19.102 42.667 42.667 42.667c23.565 0 42.667-19.103 42.667-42.667s-19.102-42.667-42.667-42.667z" />
<glyph unicode="&#xe9c5;" glyph-name="bar-chart-2-fill" d="M85.333 405.333h256v-341.333h-256v341.333zM384 832h256v-768h-256v768zM682.667 618.667h256v-554.667h-256v554.667z" />
<glyph unicode="&#xe9c6;" glyph-name="bar-chart-2-line" d="M85.333 405.333h256v-341.333h-256v341.333zM682.667 618.667h256v-554.667h-256v554.667zM384 832h256v-768h-256v768zM170.667 320v-170.667h85.333v170.667h-85.333zM469.333 746.667v-597.333h85.333v597.333h-85.333zM768 533.333v-384h85.333v384h-85.333z" />
<glyph unicode="&#xe9c7;" glyph-name="bar-chart-box-fill" d="M128 832h768c23.565 0 42.667-19.103 42.667-42.667v-682.667c0-23.565-19.102-42.667-42.667-42.667h-768c-23.564 0-42.667 19.102-42.667 42.667v682.667c0 23.564 19.103 42.667 42.667 42.667zM298.667 405.333v-170.667h85.333v170.667h-85.333zM469.333 661.333v-426.667h85.333v426.667h-85.333zM640 533.333v-298.667h85.333v298.667h-85.333z" />
<glyph unicode="&#xe9c8;" glyph-name="bar-chart-box-line" d="M128 832h768c23.565 0 42.667-19.103 42.667-42.667v-682.667c0-23.565-19.102-42.667-42.667-42.667h-768c-23.564 0-42.667 19.102-42.667 42.667v682.667c0 23.564 19.103 42.667 42.667 42.667zM170.667 746.667v-597.333h682.667v597.333h-682.667zM298.667 405.333h85.333v-170.667h-85.333v170.667zM469.333 661.333h85.333v-426.667h-85.333v426.667zM640 533.333h85.333v-298.667h-85.333v298.667z" />
<glyph unicode="&#xe9c9;" glyph-name="bar-chart-fill" d="M128 448h170.667v-384h-170.667v384zM725.333 618.667h170.667v-554.667h-170.667v554.667zM426.667 874.667h170.667v-810.667h-170.667v810.667z" />
<glyph unicode="&#xe9ca;" glyph-name="bar-chart-grouped-fill" d="M85.333 448h85.333v-384h-85.333v384zM213.333 362.667h85.333v-298.667h-85.333v298.667zM682.667 618.667h85.333v-554.667h-85.333v554.667zM810.667 533.333h85.333v-469.333h-85.333v469.333zM384 874.667h85.333v-810.667h-85.333v810.667zM512 789.333h85.333v-725.333h-85.333v725.333z" />
<glyph unicode="&#xe9cb;" glyph-name="bar-chart-grouped-line" d="M85.333 448h85.333v-384h-85.333v384zM213.333 362.667h85.333v-298.667h-85.333v298.667zM682.667 618.667h85.333v-554.667h-85.333v554.667zM810.667 533.333h85.333v-469.333h-85.333v469.333zM384 874.667h85.333v-810.667h-85.333v810.667zM512 789.333h85.333v-725.333h-85.333v725.333z" />
<glyph unicode="&#xe9cc;" glyph-name="bar-chart-horizontal-fill" d="M512 832v-170.667h-384v170.667h384zM682.667 234.667v-170.667h-554.667v170.667h554.667zM938.667 533.333v-170.667h-810.667v170.667h810.667z" />
<glyph unicode="&#xe9cd;" glyph-name="bar-chart-horizontal-line" d="M512 832v-85.333h-384v85.333h384zM682.667 149.333v-85.333h-554.667v85.333h554.667zM938.667 490.667v-85.333h-810.667v85.333h810.667z" />
<glyph unicode="&#xe9ce;" glyph-name="bar-chart-line" d="M128 448h85.333v-384h-85.333v384zM810.667 618.667h85.333v-554.667h-85.333v554.667zM469.333 874.667h85.333v-810.667h-85.333v810.667z" />
<glyph unicode="&#xe9cf;" glyph-name="barcode-box-fill" d="M128 832h768c23.565 0 42.667-19.103 42.667-42.667v-682.667c0-23.565-19.102-42.667-42.667-42.667h-768c-23.564 0-42.667 19.102-42.667 42.667v682.667c0 23.564 19.103 42.667 42.667 42.667zM256 661.333v-426.667h128v426.667h-128zM426.667 661.333v-426.667h85.333v426.667h-85.333zM554.667 661.333v-426.667h42.667v426.667h-42.667zM640 661.333v-426.667h128v426.667h-128z" />
<glyph unicode="&#xe9d0;" glyph-name="barcode-box-line" d="M170.667 746.667v-597.333h682.667v597.333h-682.667zM128 832h768c23.565 0 42.667-19.103 42.667-42.667v-682.667c0-23.565-19.102-42.667-42.667-42.667h-768c-23.564 0-42.667 19.102-42.667 42.667v682.667c0 23.564 19.103 42.667 42.667 42.667zM256 661.333h128v-426.667h-128v426.667zM426.667 661.333h85.333v-426.667h-85.333v426.667zM554.667 661.333h42.667v-426.667h-42.667v426.667zM640 661.333h128v-426.667h-128v426.667z" />
<glyph unicode="&#xe9d1;" glyph-name="barcode-fill" d="M85.333 789.333h85.333v-682.667h-85.333v682.667zM256 789.333h85.333v-682.667h-85.333v682.667zM384 789.333h128v-682.667h-128v682.667zM554.667 789.333h85.333v-682.667h-85.333v682.667zM682.667 789.333h85.333v-682.667h-85.333v682.667zM810.667 789.333h128v-682.667h-128v682.667z" />
<glyph unicode="&#xe9d2;" glyph-name="barcode-line" d="M85.333 789.333h85.333v-682.667h-85.333v682.667zM256 789.333h42.667v-682.667h-42.667v682.667zM341.333 789.333h85.333v-682.667h-85.333v682.667zM469.333 789.333h85.333v-682.667h-85.333v682.667zM597.333 789.333h85.333v-682.667h-85.333v682.667zM725.333 789.333h42.667v-682.667h-42.667v682.667zM810.667 789.333h128v-682.667h-128v682.667z" />
<glyph unicode="&#xe9d3;" glyph-name="bard-fill" d="M452.881 200.721l37.444 85.769c33.327 76.322 93.308 137.079 168.128 170.291l103.070 45.751c32.768 14.545 32.768 62.217 0 76.763l-99.853 44.323c-76.745 34.066-137.801 97.072-170.556 176l-37.931 91.401c-14.076 33.919-60.941 33.918-75.017 0l-37.932-91.4c-32.755-78.929-93.813-141.935-170.557-176.001l-99.852-44.323c-32.77-14.545-32.77-62.218 0-76.763l103.071-45.751c74.82-33.212 134.801-93.969 168.126-170.291l37.446-85.769c14.394-32.964 60.015-32.964 74.411 0zM827.793-8.102l10.53 24.137c18.773 43.034 52.587 77.299 94.775 96.043l32.444 14.417c17.549 7.795 17.549 33.297 0 41.092l-30.626 13.611c-43.277 19.226-77.696 54.758-96.149 99.255l-10.812 26.082c-7.539 18.176-32.67 18.176-40.209 0l-10.812-26.082c-18.449-44.497-52.868-80.030-96.145-99.255l-30.63-13.611c-17.545-7.795-17.545-33.297 0-41.092l32.444-14.417c42.193-18.743 76.002-53.009 94.775-96.043l10.534-24.137c7.706-17.668 32.171-17.668 39.881 0z" />
</font>
</defs>
</svg>
